999
DXF file: 100058-a_platine-arriere.dxf
999
Pro/ENGINEER 2004090 by Parametric Technology Corporation
0
SECTION
2
HEADER
9
$ACADVER
1
AC1014
9
$HANDSEED
5
       678
9
$EXTMAX
10
420.0000000000
20
297.0000000000
9
$EXTMIN
10
0.0000000000
20
0.0000000000
9
$LIMMIN
10
0.0000000000
20
0.0000000000
9
$LIMMAX
10
420.0000000000
20
297.0000000000
9
$VIEWCTR
10
210.0000000000
20
148.5000000000
9
$VIEWSIZE
40
297.0000000000
9
$CLAYER
8
0
9
$LTSCALE
40
23.1000000000
9
$CELTYPE
6
BYLAYER
9
$DIMSCALE
40
1
9
$DIMASZ
40
4.5000000000
9
$DIMEXO
40
2.6250000000
9
$DIMDLI
40
15.9600000000
9
$DIMEXE
40
7.5600000000
9
$DIMCEN
40
3.7800000000
9
$DIMLFAC
40
1.0000000000
9
$DIMTXT
40
3.5000000000
9
$DIMTOL
70
1
9
$DIMLIM
70
0
9
$DIMTFAC
40
1.0000000000
9
$DIMTP
40
0.0500000000
9
$DIMTM
40
0.0500000000
9
$MEASUREMENT
70
1
0
ENDSEC
0
SECTION
2
CLASSES
0
ENDSEC
0
SECTION
2
TABLES
0
TABLE
2
VPORT
5
8
100
AcDbSymbolTable
70
2
0
VPORT
5
1F4
100
AcDbSymbolTableRecord
100
AcDbViewportTableRecord
2
*ACTIVE
70
0
10
0.0
20
0.0
11
1.0
21
1.0
12
210.0000000000
22
148.5000000000
13
0.0
23
0.0
14
1.0
24
1.0
15
0.0
25
0.0
16
0.0
26
0.0
36
1.0
17
0.0
27
0.0
37
0.0
40
297.0000000000
41
1.4141414141
42
50.0
43
0.0
44
0.0
50
0.0
51
0.0
71
0
72
100
73
1
74
1
75
0
76
0
77
0
78
0
0
ENDTAB
0
TABLE
2
LTYPE
5
5
100
AcDbSymbolTable
70
6
0
LTYPE
5
14
100
AcDbSymbolTableRecord
100
AcDbLinetypeTableRecord
2
BYBLOCK
70
0
3

72
65
73
0
40
0.0
0
LTYPE
5
15
100
AcDbSymbolTableRecord
100
AcDbLinetypeTableRecord
2
BYLAYER
70
0
3

72
65
73
0
40
0.0
0
LTYPE
5
16
100
AcDbSymbolTableRecord
100
AcDbLinetypeTableRecord
2
CONTINUOUS
70
64
3
Solid line
72
65
73
0
40
0
0
LTYPE
5
1F5
100
AcDbSymbolTableRecord
100
AcDbLinetypeTableRecord
2
CENTER
70
64
3
____ _ ____ _ ____ _ ____ _ ____ _ ____ _ ____
72
65
73
4
40
0.6
49
0.375
74
0
49
-0.075
74
0
49
0.075
74
0
49
-0.075
74
0
0
LTYPE
5
1F6
100
AcDbSymbolTableRecord
100
AcDbLinetypeTableRecord
2
HIDDEN
70
64
3
- - - - - - - - - - - - - - - - - - - -
72
65
73
2
40
0.2
49
0.1
74
0
49
-0.1
74
0
0
LTYPE
5
1F7
100
AcDbSymbolTableRecord
100
AcDbLinetypeTableRecord
2
PHANTOM
70
64
3
_____ _ _ _____ _ _ _____ _ _ _____
72
65
73
6
40
0.8
49
0.45
74
0
49
-0.05
74
0
49
0.1
74
0
49
-0.05
74
0
49
0.1
74
0
49
-0.05
74
0
0
LTYPE
5
1F8
100
AcDbSymbolTableRecord
100
AcDbLinetypeTableRecord
2
DOT
70
64
3
. . . . . . . . . . . . . . . . . . . .
72
65
73
2
40
0.2
49
0.1
74
0
49
-0.1
74
0
0
LTYPE
5
1F9
100
AcDbSymbolTableRecord
100
AcDbLinetypeTableRecord
2
DASHED
70
64
3
- - - - - - - - - - - - - - - - - - - -
72
65
73
2
40
0.2
49
0.1
74
0
49
-0.1
74
0
0
ENDTAB
0
TABLE
2
LAYER
5
2
100
AcDbSymbolTable
70
36
0
LAYER
5
10
100
AcDbSymbolTableRecord
100
AcDbLayerTableRecord
2
0
70
0
62
7
6
CONTINUOUS
0
LAYER
5
1FA
100
AcDbSymbolTableRecord
100
AcDbLayerTableRecord
2
DEFAULT_1
70
0
62
7
6
CENTER
0
LAYER
5
1FB
100
AcDbSymbolTableRecord
100
AcDbLayerTableRecord
2
DEFAULT_2
70
0
62
8
6
HIDDEN
0
LAYER
5
1FC
100
AcDbSymbolTableRecord
100
AcDbLayerTableRecord
2
DEFAULT_3
70
0
62
7
6
PHANTOM
0
LAYER
5
1FD
100
AcDbSymbolTableRecord
100
AcDbLayerTableRecord
2
POUB
70
0
62
7
6
CONTINUOUS
0
ENDTAB
0
TABLE
2
STYLE
5
3
100
AcDbSymbolTable
70
1
0
STYLE
5
11
100
AcDbSymbolTableRecord
100
AcDbTextStyleTableRecord
2
STANDARD
70
0
40
0.0
41
0.8000000000
50
0.0
71
0
42
0.2
3
txt
4

0
STYLE
5
1FE
100
AcDbSymbolTableRecord
100
AcDbTextStyleTableRecord
2
TEXTSTYLE_1
70
0
40
0.0
41
0.8000000000
50
0.0
71
0
42
0.2
3
txt
4

0
ENDTAB
0
TABLE
2
VIEW
5
6
100
AcDbSymbolTable
70
0
0
ENDTAB
0
TABLE
2
UCS
5
7
100
AcDbSymbolTable
70
0
0
ENDTAB
0
TABLE
2
APPID
5
9
100
AcDbSymbolTable
70
1
0
APPID
5
1FF
100
AcDbSymbolTableRecord
100
AcDbRegAppTableRecord
2
ACAD
70
0
0
ENDTAB
0
TABLE
2
DIMSTYLE
5
A
100
AcDbSymbolTable
70
1
0
DIMSTYLE
105
200
100
AcDbSymbolTableRecord
100
AcDbDimStyleTableRecord
2
STANDARD
70
0
3

4

5

6

7

40
1.0
41
4.5000000000
42
0.0625
43
0.38
44
0.18
45
0.0
46
0.0
47
0.0500000000
48
0.0500000000
140
3.5000000000
141
0.09
142
0.0
143
25.4
144
1.0000000000
145
0.0
146
1.0000000000
147
0.09
71
1
72
0
73
0
74
0
75
0
76
0
77
1
78
8
170
0
171
2
172
0
173
0
174
0
175
0
176
0
177
0
178
0
270
2
271
2
272
2
273
2
274
2
340
11
275
0
280
0
281
0
282
0
283
1
284
8
285
0
286
0
287
3
288
0
0
DIMSTYLE
105
201
100
AcDbSymbolTableRecord
100
AcDbDimStyleTableRecord
2
DIMSTYLE_1
70
0
3

4

5

6

7

40
1.0
41
4.5000000000
42
0.0625
43
0.38
44
0.18
45
0.0
46
0.0
47
0.0500000000
48
0.0500000000
140
3.5000000000
141
0.09
142
0.0
143
25.4
144
1.0000000000
145
0.0
146
1.0000000000
147
0.09
71
0
72
0
73
0
74
0
75
0
76
0
77
1
78
8
170
0
171
2
172
0
173
0
174
0
175
0
176
0
177
0
178
0
270
2
271
2
272
2
273
2
274
2
340
1FE
275
0
280
0
281
0
282
0
283
1
284
8
285
0
286
0
287
3
288
0
0
DIMSTYLE
105
202
100
AcDbSymbolTableRecord
100
AcDbDimStyleTableRecord
2
DIMSTYLE_2
70
0
3

4

5

6

7

40
1.0
41
4.5000000000
42
0.0625
43
0.38
44
0.18
45
0.0
46
0.0
47
0.1000000000
48
0.1000000000
140
3.5000000000
141
0.09
142
0.0
143
25.4
144
1.0000000000
145
0.0
146
1.0000000000
147
0.09
71
0
72
0
73
1
74
1
75
0
76
0
77
0
78
8
170
0
171
2
172
0
173
0
174
0
175
0
176
0
177
0
178
0
270
2
271
1
272
1
273
2
274
2
340
1FE
275
0
280
0
281
0
282
0
283
1
284
8
285
0
286
0
287
3
288
0
0
DIMSTYLE
105
203
100
AcDbSymbolTableRecord
100
AcDbDimStyleTableRecord
2
DIMSTYLE_3
70
0
3

4

5

6

7

40
1.0
41
4.5000000000
42
0.0625
43
0.38
44
0.18
45
0.0
46
0.0
47
0.2000000000
48
0.2000000000
140
3.5000000000
141
0.09
142
0.0
143
25.4
144
1.0000000000
145
0.0
146
1.0000000000
147
0.09
71
0
72
0
73
0
74
0
75
0
76
0
77
1
78
8
170
0
171
2
172
0
173
0
174
0
175
0
176
0
177
0
178
0
270
2
271
1
272
1
273
2
274
2
340
1FE
275
0
280
0
281
0
282
0
283
1
284
8
285
0
286
0
287
3
288
0
0
DIMSTYLE
105
204
100
AcDbSymbolTableRecord
100
AcDbDimStyleTableRecord
2
DIMSTYLE_4
70
0
3

4

5

6

7

40
1.0
41
4.5000000000
42
0.0625
43
0.38
44
0.18
45
0.0
46
0.0
47
0.0500000000
48
0.0500000000
140
3.5000000000
141
0.09
142
0.0
143
25.4
144
1.0000000000
145
0.0
146
1.0000000000
147
0.09
71
0
72
0
73
0
74
0
75
0
76
0
77
1
78
8
170
0
171
2
172
0
173
0
174
0
175
0
176
0
177
0
178
0
270
2
271
2
272
2
273
2
274
2
340
1FE
275
0
280
0
281
0
282
0
283
1
284
8
285
0
286
0
287
3
288
0
0
DIMSTYLE
105
205
100
AcDbSymbolTableRecord
100
AcDbDimStyleTableRecord
2
DIMSTYLE_5
70
0
3

4

5

6

7

40
1.0
41
4.5000000000
42
0.0625
43
0.38
44
0.18
45
0.0
46
0.0
47
0.0500000000
48
0.0500000000
140
3.5000000000
141
0.09
142
0.0
143
25.4
144
1.0000000000
145
0.0
146
1.0000000000
147
0.09
71
0
72
0
73
1
74
1
75
0
76
0
77
1
78
8
170
0
171
2
172
0
173
0
174
0
175
0
176
0
177
0
178
0
270
2
271
2
272
2
273
2
274
2
340
1FE
275
0
280
0
281
0
282
0
283
1
284
8
285
0
286
0
287
3
288
0
0
ENDTAB
0
TABLE
2
BLOCK_RECORD
5
1
100
AcDbSymbolTable
70
0
0
BLOCK_RECORD
5
1B
100
AcDbSymbolTableRecord
100
AcDbBlockTableRecord
2
*MODEL_SPACE
0
BLOCK_RECORD
5
1C
100
AcDbSymbolTableRecord
100
AcDbBlockTableRecord
2
*PAPER_SPACE
0
BLOCK_RECORD
5
206
100
AcDbSymbolTableRecord
100
AcDbBlockTableRecord
2
N-DES_BL0
0
BLOCK_RECORD
5
207
100
AcDbSymbolTableRecord
100
AcDbBlockTableRecord
2
N-CART_BL1
0
BLOCK_RECORD
5
208
100
AcDbSymbolTableRecord
100
AcDbBlockTableRecord
2
*D0
0
BLOCK_RECORD
5
209
100
AcDbSymbolTableRecord
100
AcDbBlockTableRecord
2
*D1
0
BLOCK_RECORD
5
20A
100
AcDbSymbolTableRecord
100
AcDbBlockTableRecord
2
*D2
0
BLOCK_RECORD
5
20B
100
AcDbSymbolTableRecord
100
AcDbBlockTableRecord
2
*D3
0
BLOCK_RECORD
5
20C
100
AcDbSymbolTableRecord
100
AcDbBlockTableRecord
2
*D4
0
BLOCK_RECORD
5
20D
100
AcDbSymbolTableRecord
100
AcDbBlockTableRecord
2
*D5
0
BLOCK_RECORD
5
20E
100
AcDbSymbolTableRecord
100
AcDbBlockTableRecord
2
*D6
0
BLOCK_RECORD
5
20F
100
AcDbSymbolTableRecord
100
AcDbBlockTableRecord
2
*D7
0
BLOCK_RECORD
5
210
100
AcDbSymbolTableRecord
100
AcDbBlockTableRecord
2
*D8
0
BLOCK_RECORD
5
211
100
AcDbSymbolTableRecord
100
AcDbBlockTableRecord
2
*D9
0
BLOCK_RECORD
5
212
100
AcDbSymbolTableRecord
100
AcDbBlockTableRecord
2
*D10
0
BLOCK_RECORD
5
213
100
AcDbSymbolTableRecord
100
AcDbBlockTableRecord
2
*D11
0
BLOCK_RECORD
5
214
100
AcDbSymbolTableRecord
100
AcDbBlockTableRecord
2
*D12
0
BLOCK_RECORD
5
215
100
AcDbSymbolTableRecord
100
AcDbBlockTableRecord
2
*D13
0
BLOCK_RECORD
5
216
100
AcDbSymbolTableRecord
100
AcDbBlockTableRecord
2
*D14
0
BLOCK_RECORD
5
217
100
AcDbSymbolTableRecord
100
AcDbBlockTableRecord
2
*D15
0
BLOCK_RECORD
5
218
100
AcDbSymbolTableRecord
100
AcDbBlockTableRecord
2
*D16
0
BLOCK_RECORD
5
219
100
AcDbSymbolTableRecord
100
AcDbBlockTableRecord
2
*D17
0
BLOCK_RECORD
5
21A
100
AcDbSymbolTableRecord
100
AcDbBlockTableRecord
2
*D18
0
BLOCK_RECORD
5
21B
100
AcDbSymbolTableRecord
100
AcDbBlockTableRecord
2
*D19
0
BLOCK_RECORD
5
21C
100
AcDbSymbolTableRecord
100
AcDbBlockTableRecord
2
*D20
0
BLOCK_RECORD
5
21D
100
AcDbSymbolTableRecord
100
AcDbBlockTableRecord
2
*D21
0
BLOCK_RECORD
5
21E
100
AcDbSymbolTableRecord
100
AcDbBlockTableRecord
2
*D22
0
BLOCK_RECORD
5
21F
100
AcDbSymbolTableRecord
100
AcDbBlockTableRecord
2
*D23
0
BLOCK_RECORD
5
220
100
AcDbSymbolTableRecord
100
AcDbBlockTableRecord
2
*D24
0
BLOCK_RECORD
5
221
100
AcDbSymbolTableRecord
100
AcDbBlockTableRecord
2
*D25
0
BLOCK_RECORD
5
222
100
AcDbSymbolTableRecord
100
AcDbBlockTableRecord
2
*D26
0
BLOCK_RECORD
5
223
100
AcDbSymbolTableRecord
100
AcDbBlockTableRecord
2
*D27
0
BLOCK_RECORD
5
224
100
AcDbSymbolTableRecord
100
AcDbBlockTableRecord
2
*D28
0
BLOCK_RECORD
5
225
100
AcDbSymbolTableRecord
100
AcDbBlockTableRecord
2
*D29
0
BLOCK_RECORD
5
226
100
AcDbSymbolTableRecord
100
AcDbBlockTableRecord
2
*D30
0
BLOCK_RECORD
5
227
100
AcDbSymbolTableRecord
100
AcDbBlockTableRecord
2
*D31
0
BLOCK_RECORD
5
228
100
AcDbSymbolTableRecord
100
AcDbBlockTableRecord
2
*D32
0
BLOCK_RECORD
5
229
100
AcDbSymbolTableRecord
100
AcDbBlockTableRecord
2
*D33
0
BLOCK_RECORD
5
22A
100
AcDbSymbolTableRecord
100
AcDbBlockTableRecord
2
*D34
0
BLOCK_RECORD
5
22B
100
AcDbSymbolTableRecord
100
AcDbBlockTableRecord
2
*D35
0
BLOCK_RECORD
5
22C
100
AcDbSymbolTableRecord
100
AcDbBlockTableRecord
2
*D36
0
BLOCK_RECORD
5
22D
100
AcDbSymbolTableRecord
100
AcDbBlockTableRecord
2
*D37
0
BLOCK_RECORD
5
22E
100
AcDbSymbolTableRecord
100
AcDbBlockTableRecord
2
*D38
0
BLOCK_RECORD
5
22F
100
AcDbSymbolTableRecord
100
AcDbBlockTableRecord
2
*D39
0
BLOCK_RECORD
5
230
100
AcDbSymbolTableRecord
100
AcDbBlockTableRecord
2
*D40
0
BLOCK_RECORD
5
231
100
AcDbSymbolTableRecord
100
AcDbBlockTableRecord
2
*D41
0
BLOCK_RECORD
5
232
100
AcDbSymbolTableRecord
100
AcDbBlockTableRecord
2
*D42
0
BLOCK_RECORD
5
233
100
AcDbSymbolTableRecord
100
AcDbBlockTableRecord
2
*D43
0
BLOCK_RECORD
5
234
100
AcDbSymbolTableRecord
100
AcDbBlockTableRecord
2
*D44
0
BLOCK_RECORD
5
235
100
AcDbSymbolTableRecord
100
AcDbBlockTableRecord
2
*D45
0
BLOCK_RECORD
5
236
100
AcDbSymbolTableRecord
100
AcDbBlockTableRecord
2
*D46
0
BLOCK_RECORD
5
237
100
AcDbSymbolTableRecord
100
AcDbBlockTableRecord
2
*D47
0
BLOCK_RECORD
5
238
100
AcDbSymbolTableRecord
100
AcDbBlockTableRecord
2
*D48
0
BLOCK_RECORD
5
239
100
AcDbSymbolTableRecord
100
AcDbBlockTableRecord
2
*D49
0
BLOCK_RECORD
5
23A
100
AcDbSymbolTableRecord
100
AcDbBlockTableRecord
2
*D50
0
BLOCK_RECORD
5
23B
100
AcDbSymbolTableRecord
100
AcDbBlockTableRecord
2
*D51
0
BLOCK_RECORD
5
23C
100
AcDbSymbolTableRecord
100
AcDbBlockTableRecord
2
*D52
0
BLOCK_RECORD
5
23D
100
AcDbSymbolTableRecord
100
AcDbBlockTableRecord
2
*D53
0
BLOCK_RECORD
5
23E
100
AcDbSymbolTableRecord
100
AcDbBlockTableRecord
2
*D54
0
BLOCK_RECORD
5
23F
100
AcDbSymbolTableRecord
100
AcDbBlockTableRecord
2
*D55
0
BLOCK_RECORD
5
240
100
AcDbSymbolTableRecord
100
AcDbBlockTableRecord
2
*D56
0
BLOCK_RECORD
5
241
100
AcDbSymbolTableRecord
100
AcDbBlockTableRecord
2
*D57
0
BLOCK_RECORD
5
242
100
AcDbSymbolTableRecord
100
AcDbBlockTableRecord
2
*D58
0
BLOCK_RECORD
5
243
100
AcDbSymbolTableRecord
100
AcDbBlockTableRecord
2
N-CAR_BL2
0
ENDTAB
0
ENDSEC
0
SECTION
2
BLOCKS
0
BLOCK
5
1E
100
AcDbEntity
8
0
100
AcDbBlockBegin
2
*MODEL_SPACE
70
0
10
0.0
20
0.0
30
0.0
3
*MODEL_SPACE
1

0
ENDBLK
5
1F
100
AcDbEntity
8
0
100
AcDbBlockEnd
0
BLOCK
5
20
100
AcDbEntity
8
0
100
AcDbBlockBegin
2
*PAPER_SPACE
70
0
10
0.0
20
0.0
30
0.0
3
*PAPER_SPACE
1

0
ENDBLK
5
21
100
AcDbEntity
8
0
100
AcDbBlockEnd
0
BLOCK
5
244
100
AcDbEntity
8
0
100
AcDbBlockBegin
62
2
6
CONTINUOUS
2
N-DES_BL0
70
64
10
0.0000000000
20
0.0000000000
3
N-DES_BL0
1

0
LINE
5
245
100
AcDbEntity
8
0
100
AcDbLine
62
7
6
CONTINUOUS
10
414.9755083970
20
45.0843010440
11
414.9755083970
21
43.3951104690
0
LINE
5
246
100
AcDbEntity
8
0
100
AcDbLine
62
7
6
CONTINUOUS
10
420.3809182372
20
42.5505151815
11
414.9755083970
21
43.3951104690
0
LINE
5
247
100
AcDbEntity
8
DEFAULT_1
100
AcDbLine
62
2
6
CENTER
10
414.1646969210
20
44.2397057565
11
421.1917297132
21
44.2397057565
0
LINE
5
248
100
AcDbEntity
8
0
100
AcDbLine
62
7
6
CONTINUOUS
10
420.3809182372
20
45.9288963316
11
414.9755083970
21
45.0843010440
0
LINE
5
249
100
AcDbEntity
8
0
100
AcDbLine
62
7
6
CONTINUOUS
10
420.3809182372
20
45.9288963316
11
420.3809182372
21
42.5505151815
0
LINE
5
24A
100
AcDbEntity
8
0
100
AcDbLine
62
2
6
CONTINUOUS
10
424.7776655988
20
44.3400436767
11
424.7776655988
21
44.1393678363
0
LINE
5
24B
100
AcDbEntity
8
DEFAULT_1
100
AcDbLine
62
2
6
CENTER
10
424.7776655988
20
41.6419278076
11
424.7776655988
21
46.7397078076
0
LINE
5
24C
100
AcDbEntity
8
0
100
AcDbLine
62
2
6
CONTINUOUS
10
424.8780035190
20
44.2397057565
11
424.6773276787
21
44.2397057565
0
LINE
5
24D
100
AcDbEntity
8
DEFAULT_1
100
AcDbLine
62
2
6
CENTER
10
424.2759759980
20
44.2397057565
11
422.2776635477
21
44.2397057565
0
LINE
5
24E
100
AcDbEntity
8
DEFAULT_1
100
AcDbLine
62
2
6
CENTER
10
425.2793551996
20
44.2397057565
11
427.2776676499
21
44.2397057565
0
CIRCLE
5
24F
100
AcDbEntity
8
0
100
AcDbCircle
62
7
6
CONTINUOUS
10
424.7776655988
20
44.2397057565
40
1.6891905751
0
CIRCLE
5
250
100
AcDbEntity
8
0
100
AcDbCircle
62
7
6
CONTINUOUS
10
424.7776655988
20
44.2397057565
40
0.8445952875
0
ENDBLK
5
251
100
AcDbEntity
8
0
100
AcDbBlockEnd
0
BLOCK
5
252
100
AcDbEntity
8
0
100
AcDbBlockBegin
62
2
6
CONTINUOUS
2
N-CART_BL1
70
64
10
0.0000000000
20
0.0000000000
3
N-CART_BL1
1

0
LINE
5
253
100
AcDbEntity
8
0
100
AcDbLine
62
7
6
CONTINUOUS
10
445.0002950648
20
53.4997790807
11
279.0003222648
21
53.4997790807
0
LINE
5
254
100
AcDbEntity
8
0
100
AcDbLine
62
7
6
CONTINUOUS
10
445.0002950648
20
11.9997858807
11
279.0003222648
21
11.9997858807
0
LINE
5
255
100
AcDbEntity
8
0
100
AcDbLine
62
7
6
CONTINUOUS
10
445.0002950648
20
53.4997790807
11
445.0002950648
21
11.9997858807
0
LINE
5
256
100
AcDbEntity
8
0
100
AcDbLine
62
7
6
CONTINUOUS
10
279.0003222648
20
53.4997790807
11
279.0003222648
21
11.9997858807
0
LINE
5
257
100
AcDbEntity
8
0
100
AcDbLine
62
7
6
CONTINUOUS
10
445.0002950648
20
48.9997798181
11
279.0003222648
21
48.9997798181
0
LINE
5
258
100
AcDbEntity
8
0
100
AcDbLine
62
7
6
CONTINUOUS
10
399.0003026021
20
21.4997843241
11
399.0003026021
21
11.9997858807
0
LINE
5
259
100
AcDbEntity
8
0
100
AcDbLine
62
7
6
CONTINUOUS
10
445.0002950648
20
21.4997843241
11
399.0003026021
21
21.4997843241
0
ENDBLK
5
25A
100
AcDbEntity
8
0
100
AcDbBlockEnd
0
BLOCK
5
25B
100
AcDbEntity
8
0
100
AcDbBlockBegin
62
2
6
CONTINUOUS
2
*D0
70
65
10
0.0000000000
20
0.0000000000
3
*D0
1

0
TEXT
5
25C
100
AcDbEntity
8
0
100
AcDbText
62
2
6
CONTINUOUS
10
55.5481507665
20
157.3681034021
7
TEXTSTYLE_1
40
3.5000000000
1
=
50
90.0000000000
41
0.4000000000
72
0
100
AcDbText
0
TEXT
5
25D
100
AcDbEntity
8
0
100
AcDbText
62
2
6
CONTINUOUS
10
55.5481507665
20
164.1347700687
7
TEXTSTYLE_1
40
3.5000000000
1
=
50
90.0000000000
41
0.4000000000
72
0
100
AcDbText
0
TEXT
5
25E
100
AcDbEntity
8
0
100
AcDbText
62
2
6
CONTINUOUS
10
55.5481507665
20
158.7681034021
7
TEXTSTYLE_1
40
3.5000000000
1
84
50
90.0000000000
41
0.7666666667
72
0
100
AcDbText
0
LINE
5
25F
100
AcDbEntity
8
0
100
AcDbLine
62
2
6
CONTINUOUS
10
114.3874398408
20
203.4841311557
11
53.2231507665
21
203.4841311557
0
LINE
5
260
100
AcDbEntity
8
0
100
AcDbLine
62
2
6
CONTINUOUS
10
114.3874398408
20
119.4841311557
11
53.2231507665
21
119.4841311557
0
LINE
5
261
100
AcDbEntity
8
0
100
AcDbLine
62
2
6
CONTINUOUS
10
56.4231507665
20
203.4841311557
11
56.4231507665
21
161.4841311557
0
LINE
5
262
100
AcDbEntity
8
0
100
AcDbLine
62
2
6
CONTINUOUS
10
56.4231507665
20
119.4841311557
11
56.4231507665
21
161.4841311557
0
SOLID
5
263
100
AcDbEntity
8
0
100
AcDbTrace
62
2
6
CONTINUOUS
10
57.2231507665
20
198.9841311557
11
56.4231507665
21
203.4841311557
12
55.6231507665
22
198.9841311557
13
55.6231507665
23
198.9841311557
0
SOLID
5
264
100
AcDbEntity
8
0
100
AcDbTrace
62
2
6
CONTINUOUS
10
55.6231507665
20
123.9841311557
11
56.4231507665
21
119.4841311557
12
57.2231507665
22
123.9841311557
13
57.2231507665
23
123.9841311557
0
ENDBLK
5
265
100
AcDbEntity
8
0
100
AcDbBlockEnd
0
BLOCK
5
266
100
AcDbEntity
8
0
100
AcDbBlockBegin
62
2
6
CONTINUOUS
2
*D1
70
65
10
0.0000000000
20
0.0000000000
3
*D1
1

0
TEXT
5
267
100
AcDbEntity
8
0
100
AcDbText
62
2
6
CONTINUOUS
10
72.3025905913
20
157.8263987894
7
TEXTSTYLE_1
40
3.5000000000
1
=
50
90.0000000000
41
0.4000000000
72
0
100
AcDbText
0
TEXT
5
268
100
AcDbEntity
8
0
100
AcDbText
62
2
6
CONTINUOUS
10
72.3025905913
20
164.3597321227
7
TEXTSTYLE_1
40
3.5000000000
1
=
50
90.0000000000
41
0.4000000000
72
0
100
AcDbText
0
TEXT
5
269
100
AcDbEntity
8
0
100
AcDbText
62
2
6
CONTINUOUS
10
72.3025905913
20
159.2263987894
7
TEXTSTYLE_1
40
3.5000000000
1
56
50
90.0000000000
41
0.7333333333
72
0
100
AcDbText
0
LINE
5
26A
100
AcDbEntity
8
0
100
AcDbLine
62
2
6
CONTINUOUS
10
113.8873398408
20
133.4841311557
11
111.7582540790
21
133.4841311557
0
LINE
5
26B
100
AcDbEntity
8
0
100
AcDbLine
62
2
6
CONTINUOUS
10
94.1702446772
20
133.4841311557
11
69.9775905913
21
133.4841311557
0
LINE
5
26C
100
AcDbEntity
8
0
100
AcDbLine
62
2
6
CONTINUOUS
10
113.8873398408
20
189.4841311557
11
85.8848258951
21
189.4841311557
0
LINE
5
26D
100
AcDbEntity
8
0
100
AcDbLine
62
2
6
CONTINUOUS
10
76.6664210453
20
189.4841311557
11
69.9775905913
21
189.4841311557
0
LINE
5
26E
100
AcDbEntity
8
0
100
AcDbLine
62
2
6
CONTINUOUS
10
73.1775905913
20
133.4841311557
11
73.1775905913
21
161.4841311557
0
LINE
5
26F
100
AcDbEntity
8
0
100
AcDbLine
62
2
6
CONTINUOUS
10
73.1775905913
20
189.4841311557
11
73.1775905913
21
161.4841311557
0
SOLID
5
270
100
AcDbEntity
8
0
100
AcDbTrace
62
2
6
CONTINUOUS
10
72.3775905913
20
137.9841311557
11
73.1775905913
21
133.4841311557
12
73.9775905913
22
137.9841311557
13
73.9775905913
23
137.9841311557
0
SOLID
5
271
100
AcDbEntity
8
0
100
AcDbTrace
62
2
6
CONTINUOUS
10
73.9775905913
20
184.9841311557
11
73.1775905913
21
189.4841311557
12
72.3775905913
22
184.9841311557
13
72.3775905913
23
184.9841311557
0
ENDBLK
5
272
100
AcDbEntity
8
0
100
AcDbBlockEnd
0
BLOCK
5
273
100
AcDbEntity
8
0
100
AcDbBlockBegin
62
2
6
CONTINUOUS
2
*D2
70
65
10
0.0000000000
20
0.0000000000
3
*D2
1

0
TEXT
5
274
100
AcDbEntity
8
0
100
AcDbText
62
2
6
CONTINUOUS
10
63.9634387679
20
157.4638269710
7
TEXTSTYLE_1
40
3.5000000000
1
=
50
90.0000000000
41
0.4000000000
72
0
100
AcDbText
0
TEXT
5
275
100
AcDbEntity
8
0
100
AcDbText
62
2
6
CONTINUOUS
10
63.9634387679
20
163.9971603043
7
TEXTSTYLE_1
40
3.5000000000
1
=
50
90.0000000000
41
0.4000000000
72
0
100
AcDbText
0
TEXT
5
276
100
AcDbEntity
8
0
100
AcDbText
62
2
6
CONTINUOUS
10
63.9634387679
20
158.8638269710
7
TEXTSTYLE_1
40
3.5000000000
1
72
50
90.0000000000
41
0.7333333333
72
0
100
AcDbText
0
LINE
5
277
100
AcDbEntity
8
0
100
AcDbLine
62
2
6
CONTINUOUS
10
112.2874398408
20
197.4841311557
11
61.6384387679
21
197.4841311557
0
LINE
5
278
100
AcDbEntity
8
0
100
AcDbLine
62
2
6
CONTINUOUS
10
112.2874398408
20
125.4841311557
11
61.6384387679
21
125.4841311557
0
LINE
5
279
100
AcDbEntity
8
0
100
AcDbLine
62
2
6
CONTINUOUS
10
64.8384387679
20
197.4841311557
11
64.8384387679
21
161.4841311557
0
LINE
5
27A
100
AcDbEntity
8
0
100
AcDbLine
62
2
6
CONTINUOUS
10
64.8384387679
20
125.4841311557
11
64.8384387679
21
161.4841311557
0
SOLID
5
27B
100
AcDbEntity
8
0
100
AcDbTrace
62
2
6
CONTINUOUS
10
65.6384387679
20
192.9841311557
11
64.8384387679
21
197.4841311557
12
64.0384387679
22
192.9841311557
13
64.0384387679
23
192.9841311557
0
SOLID
5
27C
100
AcDbEntity
8
0
100
AcDbTrace
62
2
6
CONTINUOUS
10
64.0384387679
20
129.9841311557
11
64.8384387679
21
125.4841311557
12
65.6384387679
22
129.9841311557
13
65.6384387679
23
129.9841311557
0
ENDBLK
5
27D
100
AcDbEntity
8
0
100
AcDbBlockEnd
0
BLOCK
5
27E
100
AcDbEntity
8
0
100
AcDbBlockBegin
62
2
6
CONTINUOUS
2
*D3
70
65
10
0.0000000000
20
0.0000000000
3
*D3
1

0
TEXT
5
27F
100
AcDbEntity
8
0
100
AcDbText
62
2
6
CONTINUOUS
10
313.4156328498
20
157.1400264692
7
TEXTSTYLE_1
40
3.5000000000
1
=
50
90.0000000000
41
0.4000000000
72
0
100
AcDbText
0
TEXT
5
280
100
AcDbEntity
8
0
100
AcDbText
62
2
6
CONTINUOUS
10
313.4156328498
20
164.1400264692
7
TEXTSTYLE_1
40
3.5000000000
1
=
50
90.0000000000
41
0.4000000000
72
0
100
AcDbText
0
TEXT
5
281
100
AcDbEntity
8
0
100
AcDbText
62
2
6
CONTINUOUS
10
313.4156328498
20
158.5400264692
7
TEXTSTYLE_1
40
3.5000000000
1
44
50
90.0000000000
41
0.8000000000
72
0
100
AcDbText
0
LINE
5
282
100
AcDbEntity
8
0
100
AcDbLine
62
2
6
CONTINUOUS
10
266.4374398408
20
183.4841311557
11
317.4906328498
21
183.4841311557
0
LINE
5
283
100
AcDbEntity
8
0
100
AcDbLine
62
2
6
CONTINUOUS
10
266.4374398408
20
139.4841311557
11
317.4906328498
21
139.4841311557
0
LINE
5
284
100
AcDbEntity
8
0
100
AcDbLine
62
2
6
CONTINUOUS
10
314.2906328498
20
183.4841311557
11
314.2906328498
21
161.4841311557
0
LINE
5
285
100
AcDbEntity
8
0
100
AcDbLine
62
2
6
CONTINUOUS
10
314.2906328498
20
139.4841311557
11
314.2906328498
21
161.4841311557
0
SOLID
5
286
100
AcDbEntity
8
0
100
AcDbTrace
62
2
6
CONTINUOUS
10
315.0906328498
20
178.9841311557
11
314.2906328498
21
183.4841311557
12
313.4906328498
22
178.9841311557
13
313.4906328498
23
178.9841311557
0
SOLID
5
287
100
AcDbEntity
8
0
100
AcDbTrace
62
2
6
CONTINUOUS
10
313.4906328498
20
143.9841311557
11
314.2906328498
21
139.4841311557
12
315.0906328498
22
143.9841311557
13
315.0906328498
23
143.9841311557
0
ENDBLK
5
288
100
AcDbEntity
8
0
100
AcDbBlockEnd
0
BLOCK
5
289
100
AcDbEntity
8
0
100
AcDbBlockBegin
62
2
6
CONTINUOUS
2
*D4
70
65
10
0.0000000000
20
0.0000000000
3
*D4
1

0
TEXT
5
28A
100
AcDbEntity
8
0
100
AcDbText
62
2
6
CONTINUOUS
10
321.1512754679
20
157.2659203217
7
TEXTSTYLE_1
40
3.5000000000
1
=
50
90.0000000000
41
0.4000000000
72
0
100
AcDbText
0
TEXT
5
28B
100
AcDbEntity
8
0
100
AcDbText
62
2
6
CONTINUOUS
10
321.1512754679
20
163.7992536550
7
TEXTSTYLE_1
40
3.5000000000
1
=
50
90.0000000000
41
0.4000000000
72
0
100
AcDbText
0
TEXT
5
28C
100
AcDbEntity
8
0
100
AcDbText
62
2
6
CONTINUOUS
10
321.1512754679
20
158.6659203217
7
TEXTSTYLE_1
40
3.5000000000
1
50
50
90.0000000000
41
0.7333333333
72
0
100
AcDbText
0
LINE
5
28D
100
AcDbEntity
8
0
100
AcDbLine
62
2
6
CONTINUOUS
10
254.3874398408
20
186.4841311557
11
325.2262754679
21
186.4841311557
0
LINE
5
28E
100
AcDbEntity
8
0
100
AcDbLine
62
2
6
CONTINUOUS
10
254.3874398408
20
136.4841311557
11
325.2262754679
21
136.4841311557
0
LINE
5
28F
100
AcDbEntity
8
0
100
AcDbLine
62
2
6
CONTINUOUS
10
322.0262754679
20
186.4841311557
11
322.0262754679
21
161.4841311557
0
LINE
5
290
100
AcDbEntity
8
0
100
AcDbLine
62
2
6
CONTINUOUS
10
322.0262754679
20
136.4841311557
11
322.0262754679
21
161.4841311557
0
SOLID
5
291
100
AcDbEntity
8
0
100
AcDbTrace
62
2
6
CONTINUOUS
10
322.8262754679
20
181.9841311557
11
322.0262754679
21
186.4841311557
12
321.2262754679
22
181.9841311557
13
321.2262754679
23
181.9841311557
0
SOLID
5
292
100
AcDbEntity
8
0
100
AcDbTrace
62
2
6
CONTINUOUS
10
321.2262754679
20
140.9841311557
11
322.0262754679
21
136.4841311557
12
322.8262754679
22
140.9841311557
13
322.8262754679
23
140.9841311557
0
ENDBLK
5
293
100
AcDbEntity
8
0
100
AcDbBlockEnd
0
BLOCK
5
294
100
AcDbEntity
8
0
100
AcDbBlockBegin
62
2
6
CONTINUOUS
2
*D5
70
65
10
0.0000000000
20
0.0000000000
3
*D5
1

0
TEXT
5
295
100
AcDbEntity
8
0
100
AcDbText
62
2
6
CONTINUOUS
10
297.5303015223
20
157.4299900133
7
TEXTSTYLE_1
40
3.5000000000
1
=
50
90.0000000000
41
0.4000000000
72
0
100
AcDbText
0
TEXT
5
296
100
AcDbEntity
8
0
100
AcDbText
62
2
6
CONTINUOUS
10
297.5303015223
20
163.9633233466
7
TEXTSTYLE_1
40
3.5000000000
1
=
50
90.0000000000
41
0.4000000000
72
0
100
AcDbText
0
TEXT
5
297
100
AcDbEntity
8
0
100
AcDbText
62
2
6
CONTINUOUS
10
297.5303015223
20
158.8299900133
7
TEXTSTYLE_1
40
3.5000000000
1
37
50
90.0000000000
41
0.7333333333
72
0
100
AcDbText
0
LINE
5
298
100
AcDbEntity
8
0
100
AcDbLine
62
2
6
CONTINUOUS
10
219.6438671873
20
179.9841311557
11
235.9388189715
21
179.9841311557
0
LINE
5
299
100
AcDbEntity
8
0
100
AcDbLine
62
2
6
CONTINUOUS
10
247.1642302006
20
179.9841311557
11
301.6053015223
21
179.9841311557
0
LINE
5
29A
100
AcDbEntity
8
0
100
AcDbLine
62
2
6
CONTINUOUS
10
219.6438671873
20
142.9841311557
11
235.6974122784
21
142.9841311557
0
LINE
5
29B
100
AcDbEntity
8
0
100
AcDbLine
62
2
6
CONTINUOUS
10
247.6470435868
20
142.9841311557
11
301.6053015223
21
142.9841311557
0
LINE
5
29C
100
AcDbEntity
8
0
100
AcDbLine
62
2
6
CONTINUOUS
10
298.4053015223
20
179.9841311557
11
298.4053015223
21
161.4841311557
0
LINE
5
29D
100
AcDbEntity
8
0
100
AcDbLine
62
2
6
CONTINUOUS
10
298.4053015223
20
142.9841311557
11
298.4053015223
21
161.4841311557
0
SOLID
5
29E
100
AcDbEntity
8
0
100
AcDbTrace
62
2
6
CONTINUOUS
10
299.2053015223
20
175.4841311557
11
298.4053015223
21
179.9841311557
12
297.6053015223
22
175.4841311557
13
297.6053015223
23
175.4841311557
0
SOLID
5
29F
100
AcDbEntity
8
0
100
AcDbTrace
62
2
6
CONTINUOUS
10
297.6053015223
20
147.4841311557
11
298.4053015223
21
142.9841311557
12
299.2053015223
22
147.4841311557
13
299.2053015223
23
147.4841311557
0
ENDBLK
5
2A0
100
AcDbEntity
8
0
100
AcDbBlockEnd
0
BLOCK
5
2A1
100
AcDbEntity
8
0
100
AcDbBlockBegin
62
2
6
CONTINUOUS
2
*D6
70
65
10
0.0000000000
20
0.0000000000
3
*D6
1

0
TEXT
5
2A2
100
AcDbEntity
8
0
100
AcDbText
62
2
6
CONTINUOUS
10
279.4385862216
20
158.3277136778
7
TEXTSTYLE_1
40
3.5000000000
1
=
50
90.0000000000
41
0.4000000000
72
0
100
AcDbText
0
TEXT
5
2A3
100
AcDbEntity
8
0
100
AcDbText
62
2
6
CONTINUOUS
10
279.4385862216
20
163.4610470111
7
TEXTSTYLE_1
40
3.5000000000
1
=
50
90.0000000000
41
0.4000000000
72
0
100
AcDbText
0
TEXT
5
2A4
100
AcDbEntity
8
0
100
AcDbText
62
2
6
CONTINUOUS
10
279.4385862216
20
159.7277136778
7
TEXTSTYLE_1
40
3.5000000000
1
16
50
90.0000000000
41
0.5333333333
72
0
100
AcDbText
0
LINE
5
2A5
100
AcDbEntity
8
0
100
AcDbLine
62
2
6
CONTINUOUS
10
246.8874398408
20
169.4841311557
11
283.5135862216
21
169.4841311557
0
LINE
5
2A6
100
AcDbEntity
8
0
100
AcDbLine
62
2
6
CONTINUOUS
10
246.8874398408
20
153.4841311557
11
283.5135862216
21
153.4841311557
0
LINE
5
2A7
100
AcDbEntity
8
0
100
AcDbLine
62
2
6
CONTINUOUS
10
280.3135862216
20
169.4841311557
11
280.3135862216
21
171.4841311557
0
LINE
5
2A8
100
AcDbEntity
8
0
100
AcDbLine
62
2
6
CONTINUOUS
10
280.3135862216
20
171.4841311557
11
280.3135862216
21
161.4841311557
0
LINE
5
2A9
100
AcDbEntity
8
0
100
AcDbLine
62
2
6
CONTINUOUS
10
280.3135862216
20
153.4841311557
11
280.3135862216
21
151.4841311557
0
LINE
5
2AA
100
AcDbEntity
8
0
100
AcDbLine
62
2
6
CONTINUOUS
10
280.3135862216
20
151.4841311557
11
280.3135862216
21
161.4841311557
0
SOLID
5
2AB
100
AcDbEntity
8
0
100
AcDbTrace
62
2
6
CONTINUOUS
10
279.5135862216
20
173.9841311557
11
280.3135862216
21
169.4841311557
12
281.1135862216
22
173.9841311557
13
281.1135862216
23
173.9841311557
0
SOLID
5
2AC
100
AcDbEntity
8
0
100
AcDbTrace
62
2
6
CONTINUOUS
10
281.1135862216
20
148.9841311557
11
280.3135862216
21
153.4841311557
12
279.5135862216
22
148.9841311557
13
279.5135862216
23
148.9841311557
0
ENDBLK
5
2AD
100
AcDbEntity
8
0
100
AcDbBlockEnd
0
BLOCK
5
2AE
100
AcDbEntity
8
0
100
AcDbBlockBegin
62
2
6
CONTINUOUS
2
*D7
70
65
10
0.0000000000
20
0.0000000000
3
*D7
1

0
TEXT
5
2AF
100
AcDbEntity
8
0
100
AcDbText
62
2
6
CONTINUOUS
10
328.5645996435
20
157.3733598025
7
TEXTSTYLE_1
40
3.5000000000
1
=
50
90.0000000000
41
0.4000000000
72
0
100
AcDbText
0
TEXT
5
2B0
100
AcDbEntity
8
0
100
AcDbText
62
2
6
CONTINUOUS
10
328.5645996435
20
163.9066931358
7
TEXTSTYLE_1
40
3.5000000000
1
=
50
90.0000000000
41
0.4000000000
72
0
100
AcDbText
0
TEXT
5
2B1
100
AcDbEntity
8
0
100
AcDbText
62
2
6
CONTINUOUS
10
328.5645996435
20
158.7733598025
7
TEXTSTYLE_1
40
3.5000000000
1
52
50
90.0000000000
41
0.7333333333
72
0
100
AcDbText
0
LINE
5
2B2
100
AcDbEntity
8
0
100
AcDbLine
62
2
6
CONTINUOUS
10
232.5442940903
20
187.4841311557
11
332.6395996435
21
187.4841311557
0
LINE
5
2B3
100
AcDbEntity
8
0
100
AcDbLine
62
2
6
CONTINUOUS
10
232.5442940903
20
135.4841311557
11
332.6395996435
21
135.4841311557
0
LINE
5
2B4
100
AcDbEntity
8
0
100
AcDbLine
62
2
6
CONTINUOUS
10
329.4395996435
20
187.4841311557
11
329.4395996435
21
161.4841311557
0
LINE
5
2B5
100
AcDbEntity
8
0
100
AcDbLine
62
2
6
CONTINUOUS
10
329.4395996435
20
135.4841311557
11
329.4395996435
21
161.4841311557
0
SOLID
5
2B6
100
AcDbEntity
8
0
100
AcDbTrace
62
2
6
CONTINUOUS
10
330.2395996435
20
182.9841311557
11
329.4395996435
21
187.4841311557
12
328.6395996435
22
182.9841311557
13
328.6395996435
23
182.9841311557
0
SOLID
5
2B7
100
AcDbEntity
8
0
100
AcDbTrace
62
2
6
CONTINUOUS
10
328.6395996435
20
139.9841311557
11
329.4395996435
21
135.4841311557
12
330.2395996435
22
139.9841311557
13
330.2395996435
23
139.9841311557
0
ENDBLK
5
2B8
100
AcDbEntity
8
0
100
AcDbBlockEnd
0
BLOCK
5
2B9
100
AcDbEntity
8
0
100
AcDbBlockBegin
62
2
6
CONTINUOUS
2
*D8
70
65
10
0.0000000000
20
0.0000000000
3
*D8
1

0
TEXT
5
2BA
100
AcDbEntity
8
0
100
AcDbText
62
2
6
CONTINUOUS
10
335.8704843384
20
157.1584808409
7
TEXTSTYLE_1
40
3.5000000000
1
=
50
90.0000000000
41
0.4000000000
72
0
100
AcDbText
0
TEXT
5
2BB
100
AcDbEntity
8
0
100
AcDbText
62
2
6
CONTINUOUS
10
335.8704843384
20
163.6918141742
7
TEXTSTYLE_1
40
3.5000000000
1
=
50
90.0000000000
41
0.4000000000
72
0
100
AcDbText
0
TEXT
5
2BC
100
AcDbEntity
8
0
100
AcDbText
62
2
6
CONTINUOUS
10
335.8704843384
20
158.5584808409
7
TEXTSTYLE_1
40
3.5000000000
1
55
50
90.0000000000
41
0.7333333333
72
0
100
AcDbText
0
LINE
5
2BD
100
AcDbEntity
8
0
100
AcDbLine
62
2
6
CONTINUOUS
10
262.3874398408
20
188.9841311557
11
339.9454843384
21
188.9841311557
0
LINE
5
2BE
100
AcDbEntity
8
0
100
AcDbLine
62
2
6
CONTINUOUS
10
262.3874398408
20
133.9841311557
11
339.9454843384
21
133.9841311557
0
LINE
5
2BF
100
AcDbEntity
8
0
100
AcDbLine
62
2
6
CONTINUOUS
10
336.7454843384
20
188.9841311557
11
336.7454843384
21
161.4841311557
0
LINE
5
2C0
100
AcDbEntity
8
0
100
AcDbLine
62
2
6
CONTINUOUS
10
336.7454843384
20
133.9841311557
11
336.7454843384
21
161.4841311557
0
SOLID
5
2C1
100
AcDbEntity
8
0
100
AcDbTrace
62
2
6
CONTINUOUS
10
337.5454843384
20
184.4841311557
11
336.7454843384
21
188.9841311557
12
335.9454843384
22
184.4841311557
13
335.9454843384
23
184.4841311557
0
SOLID
5
2C2
100
AcDbEntity
8
0
100
AcDbTrace
62
2
6
CONTINUOUS
10
335.9454843384
20
138.4841311557
11
336.7454843384
21
133.9841311557
12
337.5454843384
22
138.4841311557
13
337.5454843384
23
138.4841311557
0
ENDBLK
5
2C3
100
AcDbEntity
8
0
100
AcDbBlockEnd
0
BLOCK
5
2C4
100
AcDbEntity
8
0
100
AcDbBlockBegin
62
2
6
CONTINUOUS
2
*D9
70
65
10
0.0000000000
20
0.0000000000
3
*D9
1

0
TEXT
5
2C5
100
AcDbEntity
8
0
100
AcDbText
62
2
6
CONTINUOUS
10
343.2838085141
20
156.8361623985
7
TEXTSTYLE_1
40
3.5000000000
1
=
50
90.0000000000
41
0.4000000000
72
0
100
AcDbText
0
TEXT
5
2C6
100
AcDbEntity
8
0
100
AcDbText
62
2
6
CONTINUOUS
10
343.2838085141
20
163.3694957318
7
TEXTSTYLE_1
40
3.5000000000
1
=
50
90.0000000000
41
0.4000000000
72
0
100
AcDbText
0
TEXT
5
2C7
100
AcDbEntity
8
0
100
AcDbText
62
2
6
CONTINUOUS
10
343.2838085141
20
158.2361623985
7
TEXTSTYLE_1
40
3.5000000000
1
65
50
90.0000000000
41
0.7333333333
72
0
100
AcDbText
0
LINE
5
2C8
100
AcDbEntity
8
0
100
AcDbLine
62
2
6
CONTINUOUS
10
195.4374398408
20
193.9841311557
11
207.8810391890
21
193.9841311557
0
LINE
5
2C9
100
AcDbEntity
8
0
100
AcDbLine
62
2
6
CONTINUOUS
10
211.2733319995
20
193.9841311557
11
224.5431832878
21
193.9841311557
0
LINE
5
2CA
100
AcDbEntity
8
0
100
AcDbLine
62
2
6
CONTINUOUS
10
234.2211951296
20
193.9841311557
11
247.1917264639
21
193.9841311557
0
LINE
5
2CB
100
AcDbEntity
8
0
100
AcDbLine
62
2
6
CONTINUOUS
10
269.8402696401
20
193.9841311557
11
347.3588085141
21
193.9841311557
0
LINE
5
2CC
100
AcDbEntity
8
0
100
AcDbLine
62
2
6
CONTINUOUS
10
201.9374398408
20
128.9841311557
11
204.8600920333
21
128.9841311557
0
LINE
5
2CD
100
AcDbEntity
8
0
100
AcDbLine
62
2
6
CONTINUOUS
10
211.2501310228
20
128.9841311557
11
217.0167515744
21
128.9841311557
0
LINE
5
2CE
100
AcDbEntity
8
0
100
AcDbLine
62
2
6
CONTINUOUS
10
220.9131168119
20
128.9841311557
11
236.0310139335
21
128.9841311557
0
LINE
5
2CF
100
AcDbEntity
8
0
100
AcDbLine
62
2
6
CONTINUOUS
10
247.6421823414
20
128.9841311557
11
260.9825627205
21
128.9841311557
0
LINE
5
2D0
100
AcDbEntity
8
0
100
AcDbLine
62
2
6
CONTINUOUS
10
266.2925448201
20
128.9841311557
11
347.3588085141
21
128.9841311557
0
LINE
5
2D1
100
AcDbEntity
8
0
100
AcDbLine
62
2
6
CONTINUOUS
10
344.1588085141
20
193.9841311557
11
344.1588085141
21
161.4841311557
0
LINE
5
2D2
100
AcDbEntity
8
0
100
AcDbLine
62
2
6
CONTINUOUS
10
344.1588085141
20
128.9841311557
11
344.1588085141
21
161.4841311557
0
SOLID
5
2D3
100
AcDbEntity
8
0
100
AcDbTrace
62
2
6
CONTINUOUS
10
344.9588085141
20
189.4841311557
11
344.1588085141
21
193.9841311557
12
343.3588085141
22
189.4841311557
13
343.3588085141
23
189.4841311557
0
SOLID
5
2D4
100
AcDbEntity
8
0
100
AcDbTrace
62
2
6
CONTINUOUS
10
343.3588085141
20
133.4841311557
11
344.1588085141
21
128.9841311557
12
344.9588085141
22
133.4841311557
13
344.9588085141
23
133.4841311557
0
ENDBLK
5
2D5
100
AcDbEntity
8
0
100
AcDbBlockEnd
0
BLOCK
5
2D6
100
AcDbEntity
8
0
100
AcDbBlockBegin
62
2
6
CONTINUOUS
2
*D10
70
65
10
0.0000000000
20
0.0000000000
3
*D10
1

0
TEXT
5
2D7
100
AcDbEntity
8
0
100
AcDbText
62
2
6
CONTINUOUS
10
351.7715274978
20
156.7287229177
7
TEXTSTYLE_1
40
3.5000000000
1
=
50
90.0000000000
41
0.4000000000
72
0
100
AcDbText
0
TEXT
5
2D8
100
AcDbEntity
8
0
100
AcDbText
62
2
6
CONTINUOUS
10
351.7715274978
20
163.2620562510
7
TEXTSTYLE_1
40
3.5000000000
1
=
50
90.0000000000
41
0.4000000000
72
0
100
AcDbText
0
TEXT
5
2D9
100
AcDbEntity
8
0
100
AcDbText
62
2
6
CONTINUOUS
10
351.7715274978
20
158.1287229177
7
TEXTSTYLE_1
40
3.5000000000
1
77
50
90.0000000000
41
0.7333333333
72
0
100
AcDbText
0
LINE
5
2DA
100
AcDbEntity
8
0
100
AcDbLine
62
2
6
CONTINUOUS
10
202.3874398408
20
199.9841311557
11
207.8810391890
21
199.9841311557
0
LINE
5
2DB
100
AcDbEntity
8
0
100
AcDbLine
62
2
6
CONTINUOUS
10
212.3708384970
20
199.9841311557
11
224.3436366519
21
199.9841311557
0
LINE
5
2DC
100
AcDbEntity
8
0
100
AcDbLine
62
2
6
CONTINUOUS
10
234.3209684475
20
199.9841311557
11
247.4910464178
21
199.9841311557
0
LINE
5
2DD
100
AcDbEntity
8
0
100
AcDbLine
62
2
6
CONTINUOUS
10
269.9400429581
20
199.9841311557
11
355.8465274978
21
199.9841311557
0
LINE
5
2DE
100
AcDbEntity
8
0
100
AcDbLine
62
2
6
CONTINUOUS
10
202.3874398408
20
122.9841311557
11
204.2366735953
21
122.9841311557
0
LINE
5
2DF
100
AcDbEntity
8
0
100
AcDbLine
62
2
6
CONTINUOUS
10
211.9514767656
20
122.9841311557
11
216.7050423554
21
122.9841311557
0
LINE
5
2E0
100
AcDbEntity
8
0
100
AcDbLine
62
2
6
CONTINUOUS
10
220.5234802882
20
122.9841311557
11
235.7193047145
21
122.9841311557
0
LINE
5
2E1
100
AcDbEntity
8
0
100
AcDbLine
62
2
6
CONTINUOUS
10
247.7980369509
20
122.9841311557
11
262.3409302343
21
122.9841311557
0
LINE
5
2E2
100
AcDbEntity
8
0
100
AcDbLine
62
2
6
CONTINUOUS
10
270.4911353175
20
122.9841311557
11
355.8465274978
21
122.9841311557
0
LINE
5
2E3
100
AcDbEntity
8
0
100
AcDbLine
62
2
6
CONTINUOUS
10
352.6465274978
20
199.9841311557
11
352.6465274978
21
161.4841311557
0
LINE
5
2E4
100
AcDbEntity
8
0
100
AcDbLine
62
2
6
CONTINUOUS
10
352.6465274978
20
122.9841311557
11
352.6465274978
21
161.4841311557
0
SOLID
5
2E5
100
AcDbEntity
8
0
100
AcDbTrace
62
2
6
CONTINUOUS
10
353.4465274978
20
195.4841311557
11
352.6465274978
21
199.9841311557
12
351.8465274978
22
195.4841311557
13
351.8465274978
23
195.4841311557
0
SOLID
5
2E6
100
AcDbEntity
8
0
100
AcDbTrace
62
2
6
CONTINUOUS
10
351.8465274978
20
127.4841311557
11
352.6465274978
21
122.9841311557
12
353.4465274978
22
127.4841311557
13
353.4465274978
23
127.4841311557
0
ENDBLK
5
2E7
100
AcDbEntity
8
0
100
AcDbBlockEnd
0
BLOCK
5
2E8
100
AcDbEntity
8
0
100
AcDbBlockBegin
62
2
6
CONTINUOUS
2
*D11
70
65
10
0.0000000000
20
0.0000000000
3
*D11
1

0
TEXT
5
2E9
100
AcDbEntity
8
0
100
AcDbText
62
2
6
CONTINUOUS
10
108.5927385151
20
167.6547551516
7
TEXTSTYLE_1
40
3.5000000000
1
1,75
50
90.0000000000
41
0.5291666667
72
0
100
AcDbText
0
LINE
5
2EA
100
AcDbEntity
8
0
100
AcDbLine
62
2
6
CONTINUOUS
10
109.8874398408
20
161.4841311557
11
106.2677385151
21
161.4841311557
0
LINE
5
2EB
100
AcDbEntity
8
0
100
AcDbLine
62
2
6
CONTINUOUS
10
139.8489010338
20
163.2341311557
11
106.2677385151
21
163.2341311557
0
LINE
5
2EC
100
AcDbEntity
8
0
100
AcDbLine
62
2
6
CONTINUOUS
10
109.4677385151
20
161.4841311557
11
109.4677385151
21
159.4841311557
0
LINE
5
2ED
100
AcDbEntity
8
0
100
AcDbLine
62
2
6
CONTINUOUS
10
109.4677385151
20
159.4841311557
11
109.4677385151
21
162.3591311557
0
LINE
5
2EE
100
AcDbEntity
8
0
100
AcDbLine
62
2
6
CONTINUOUS
10
109.4677385151
20
163.2341311557
11
109.4677385151
21
175.0630884849
0
LINE
5
2EF
100
AcDbEntity
8
0
100
AcDbLine
62
2
6
CONTINUOUS
10
109.4677385151
20
175.0630884849
11
109.4677385151
21
162.3591311557
0
SOLID
5
2F0
100
AcDbEntity
8
0
100
AcDbTrace
62
2
6
CONTINUOUS
10
110.2677385151
20
156.9841311557
11
109.4677385151
21
161.4841311557
12
108.6677385151
22
156.9841311557
13
108.6677385151
23
156.9841311557
0
SOLID
5
2F1
100
AcDbEntity
8
0
100
AcDbTrace
62
2
6
CONTINUOUS
10
108.6677385151
20
167.7341311557
11
109.4677385151
21
163.2341311557
12
110.2677385151
22
167.7341311557
13
110.2677385151
23
167.7341311557
0
ENDBLK
5
2F2
100
AcDbEntity
8
0
100
AcDbBlockEnd
0
BLOCK
5
2F3
100
AcDbEntity
8
0
100
AcDbBlockBegin
62
2
6
CONTINUOUS
2
*D12
70
65
10
0.0000000000
20
0.0000000000
3
*D12
1

0
TEXT
5
2F4
100
AcDbEntity
8
0
100
AcDbText
62
2
6
CONTINUOUS
10
90.2498956026
20
171.5538406154
7
TEXTSTYLE_1
40
3.5000000000
1
25
50
90.0000000000
41
0.7333333333
72
0
100
AcDbText
0
LINE
5
2F5
100
AcDbEntity
8
0
100
AcDbLine
62
2
6
CONTINUOUS
10
106.2159455437
20
161.4841311557
11
102.2129660014
21
161.4841311557
0
LINE
5
2F6
100
AcDbEntity
8
0
100
AcDbLine
62
2
6
CONTINUOUS
10
96.5218497327
20
161.4841311557
11
87.9248956026
21
161.4841311557
0
LINE
5
2F7
100
AcDbEntity
8
0
100
AcDbLine
62
2
6
CONTINUOUS
10
132.8489010338
20
186.4841311557
11
87.9248956026
21
186.4841311557
0
LINE
5
2F8
100
AcDbEntity
8
0
100
AcDbLine
62
2
6
CONTINUOUS
10
91.1248956026
20
161.4841311557
11
91.1248956026
21
173.9841311557
0
LINE
5
2F9
100
AcDbEntity
8
0
100
AcDbLine
62
2
6
CONTINUOUS
10
91.1248956026
20
186.4841311557
11
91.1248956026
21
173.9841311557
0
SOLID
5
2FA
100
AcDbEntity
8
0
100
AcDbTrace
62
2
6
CONTINUOUS
10
90.3248956026
20
165.9841311557
11
91.1248956026
21
161.4841311557
12
91.9248956026
22
165.9841311557
13
91.9248956026
23
165.9841311557
0
SOLID
5
2FB
100
AcDbEntity
8
0
100
AcDbTrace
62
2
6
CONTINUOUS
10
91.9248956026
20
181.9841311557
11
91.1248956026
21
186.4841311557
12
90.3248956026
22
181.9841311557
13
90.3248956026
23
181.9841311557
0
ENDBLK
5
2FC
100
AcDbEntity
8
0
100
AcDbBlockEnd
0
BLOCK
5
2FD
100
AcDbEntity
8
0
100
AcDbBlockBegin
62
2
6
CONTINUOUS
2
*D13
70
65
10
0.0000000000
20
0.0000000000
3
*D13
1

0
TEXT
5
2FE
100
AcDbEntity
8
0
100
AcDbText
62
2
6
CONTINUOUS
10
103.0250749428
20
248.8511884043
7
TEXTSTYLE_1
40
3.5000000000
1
4,5
41
0.6166666667
72
0
100
AcDbText
0
LINE
5
2FF
100
AcDbEntity
8
0
100
AcDbLine
62
2
6
CONTINUOUS
10
115.8874398408
20
204.9841311557
11
115.8874398408
21
251.1761884043
0
LINE
5
300
100
AcDbEntity
8
0
100
AcDbLine
62
2
6
CONTINUOUS
10
120.3874398408
20
205.5841311557
11
120.3874398408
21
209.5111745167
0
LINE
5
301
100
AcDbEntity
8
0
100
AcDbLine
62
2
6
CONTINUOUS
10
120.3874398408
20
217.7559120307
11
120.3874398408
21
251.1761884043
0
LINE
5
302
100
AcDbEntity
8
0
100
AcDbLine
62
2
6
CONTINUOUS
10
115.8874398408
20
247.9761884043
11
103.0250749428
21
247.9761884043
0
LINE
5
303
100
AcDbEntity
8
0
100
AcDbLine
62
2
6
CONTINUOUS
10
103.0250749428
20
247.9761884043
11
118.1374398408
21
247.9761884043
0
LINE
5
304
100
AcDbEntity
8
0
100
AcDbLine
62
2
6
CONTINUOUS
10
120.3874398408
20
247.9761884043
11
122.3874398408
21
247.9761884043
0
LINE
5
305
100
AcDbEntity
8
0
100
AcDbLine
62
2
6
CONTINUOUS
10
122.3874398408
20
247.9761884043
11
118.1374398408
21
247.9761884043
0
SOLID
5
306
100
AcDbEntity
8
0
100
AcDbTrace
62
2
6
CONTINUOUS
10
111.3874398408
20
247.1761884043
11
115.8874398408
21
247.9761884043
12
111.3874398408
22
248.7761884043
13
111.3874398408
23
248.7761884043
0
SOLID
5
307
100
AcDbEntity
8
0
100
AcDbTrace
62
2
6
CONTINUOUS
10
124.8874398408
20
248.7761884043
11
120.3874398408
21
247.9761884043
12
124.8874398408
22
247.1761884043
13
124.8874398408
23
247.1761884043
0
ENDBLK
5
308
100
AcDbEntity
8
0
100
AcDbBlockEnd
0
BLOCK
5
309
100
AcDbEntity
8
0
100
AcDbBlockBegin
62
2
6
CONTINUOUS
2
*D14
70
65
10
0.0000000000
20
0.0000000000
3
*D14
1

0
TEXT
5
30A
100
AcDbEntity
8
0
100
AcDbText
62
2
6
CONTINUOUS
10
148.2836259910
20
248.8511884043
7
TEXTSTYLE_1
40
3.5000000000
1
61,5
41
0.5291666667
72
0
100
AcDbText
0
LINE
5
30B
100
AcDbEntity
8
0
100
AcDbLine
62
2
6
CONTINUOUS
10
120.3874398408
20
222.3523727888
11
120.3874398408
21
251.1761884043
0
LINE
5
30C
100
AcDbEntity
8
0
100
AcDbLine
62
2
6
CONTINUOUS
10
181.8874398408
20
200.4842311557
11
181.8874398408
21
209.2238914264
0
LINE
5
30D
100
AcDbEntity
8
0
100
AcDbLine
62
2
6
CONTINUOUS
10
181.8874398408
20
222.1442590734
11
181.8874398408
21
251.1761884043
0
LINE
5
30E
100
AcDbEntity
8
0
100
AcDbLine
62
2
6
CONTINUOUS
10
120.3874398408
20
247.9761884043
11
151.1374398408
21
247.9761884043
0
LINE
5
30F
100
AcDbEntity
8
0
100
AcDbLine
62
2
6
CONTINUOUS
10
181.8874398408
20
247.9761884043
11
151.1374398408
21
247.9761884043
0
SOLID
5
310
100
AcDbEntity
8
0
100
AcDbTrace
62
2
6
CONTINUOUS
10
124.8874398408
20
248.7761884043
11
120.3874398408
21
247.9761884043
12
124.8874398408
22
247.1761884043
13
124.8874398408
23
247.1761884043
0
SOLID
5
311
100
AcDbEntity
8
0
100
AcDbTrace
62
2
6
CONTINUOUS
10
177.3874398408
20
247.1761884043
11
181.8874398408
21
247.9761884043
12
177.3874398408
22
248.7761884043
13
177.3874398408
23
248.7761884043
0
ENDBLK
5
312
100
AcDbEntity
8
0
100
AcDbBlockEnd
0
BLOCK
5
313
100
AcDbEntity
8
0
100
AcDbBlockBegin
62
2
6
CONTINUOUS
2
*D15
70
65
10
0.0000000000
20
0.0000000000
3
*D15
1

0
TEXT
5
314
100
AcDbEntity
8
0
100
AcDbText
62
2
6
CONTINUOUS
10
178.6146072062
20
213.2838589583
7
TEXTSTYLE_1
40
3.5000000000
1
=
41
0.4000000000
72
0
100
AcDbText
0
TEXT
5
315
100
AcDbEntity
8
0
100
AcDbText
62
2
6
CONTINUOUS
10
183.7479405396
20
213.2838589583
7
TEXTSTYLE_1
40
3.5000000000
1
=
41
0.4000000000
72
0
100
AcDbText
0
TEXT
5
316
100
AcDbEntity
8
0
100
AcDbText
62
2
6
CONTINUOUS
10
180.0146072062
20
213.2838589583
7
TEXTSTYLE_1
40
3.5000000000
1
10
41
0.5333333333
72
0
100
AcDbText
0
LINE
5
317
100
AcDbEntity
8
0
100
AcDbLine
62
2
6
CONTINUOUS
10
176.8874398408
20
202.5341311557
11
176.8874398408
21
215.6088589583
0
LINE
5
318
100
AcDbEntity
8
0
100
AcDbLine
62
2
6
CONTINUOUS
10
186.8874398408
20
202.5341311557
11
186.8874398408
21
215.6088589583
0
LINE
5
319
100
AcDbEntity
8
0
100
AcDbLine
62
2
6
CONTINUOUS
10
176.8874398408
20
212.4088589583
11
174.8874398408
21
212.4088589583
0
LINE
5
31A
100
AcDbEntity
8
0
100
AcDbLine
62
2
6
CONTINUOUS
10
174.8874398408
20
212.4088589583
11
181.8874398408
21
212.4088589583
0
LINE
5
31B
100
AcDbEntity
8
0
100
AcDbLine
62
2
6
CONTINUOUS
10
186.8874398408
20
212.4088589583
11
188.8874398408
21
212.4088589583
0
LINE
5
31C
100
AcDbEntity
8
0
100
AcDbLine
62
2
6
CONTINUOUS
10
188.8874398408
20
212.4088589583
11
181.8874398408
21
212.4088589583
0
SOLID
5
31D
100
AcDbEntity
8
0
100
AcDbTrace
62
2
6
CONTINUOUS
10
172.3874398408
20
211.6088589583
11
176.8874398408
21
212.4088589583
12
172.3874398408
22
213.2088589583
13
172.3874398408
23
213.2088589583
0
SOLID
5
31E
100
AcDbEntity
8
0
100
AcDbTrace
62
2
6
CONTINUOUS
10
191.3874398408
20
213.2088589583
11
186.8874398408
21
212.4088589583
12
191.3874398408
22
211.6088589583
13
191.3874398408
23
211.6088589583
0
ENDBLK
5
31F
100
AcDbEntity
8
0
100
AcDbBlockEnd
0
BLOCK
5
320
100
AcDbEntity
8
0
100
AcDbBlockBegin
62
2
6
CONTINUOUS
2
*D16
70
65
10
0.0000000000
20
0.0000000000
3
*D16
1

0
TEXT
5
321
100
AcDbEntity
8
0
100
AcDbText
62
2
6
CONTINUOUS
10
148.0211259910
20
231.0888362383
7
TEXTSTYLE_1
40
3.5000000000
1
=
41
0.4000000000
72
0
100
AcDbText
0
TEXT
5
322
100
AcDbEntity
8
0
100
AcDbText
62
2
6
CONTINUOUS
10
154.5544593243
20
231.0888362383
7
TEXTSTYLE_1
40
3.5000000000
1
=
41
0.4000000000
72
0
100
AcDbText
0
TEXT
5
323
100
AcDbEntity
8
0
100
AcDbText
62
2
6
CONTINUOUS
10
149.4211259910
20
231.0888362383
7
TEXTSTYLE_1
40
3.5000000000
1
25
41
0.7333333333
72
0
100
AcDbText
0
LINE
5
324
100
AcDbEntity
8
0
100
AcDbLine
62
2
6
CONTINUOUS
10
164.3490010338
20
192.9842311557
11
164.3490010338
21
233.4138362383
0
LINE
5
325
100
AcDbEntity
8
0
100
AcDbLine
62
2
6
CONTINUOUS
10
139.3490010338
20
192.9842311557
11
139.3490010338
21
209.7236618471
0
LINE
5
326
100
AcDbEntity
8
0
100
AcDbLine
62
2
6
CONTINUOUS
10
139.3490010338
20
218.3448191822
11
139.3490010338
21
233.4138362383
0
LINE
5
327
100
AcDbEntity
8
0
100
AcDbLine
62
2
6
CONTINUOUS
10
164.3490010338
20
230.2138362383
11
151.8490010338
21
230.2138362383
0
LINE
5
328
100
AcDbEntity
8
0
100
AcDbLine
62
2
6
CONTINUOUS
10
139.3490010338
20
230.2138362383
11
151.8490010338
21
230.2138362383
0
SOLID
5
329
100
AcDbEntity
8
0
100
AcDbTrace
62
2
6
CONTINUOUS
10
159.8490010338
20
229.4138362383
11
164.3490010338
21
230.2138362383
12
159.8490010338
22
231.0138362383
13
159.8490010338
23
231.0138362383
0
SOLID
5
32A
100
AcDbEntity
8
0
100
AcDbTrace
62
2
6
CONTINUOUS
10
143.8490010338
20
231.0138362383
11
139.3490010338
21
230.2138362383
12
143.8490010338
22
229.4138362383
13
143.8490010338
23
229.4138362383
0
ENDBLK
5
32B
100
AcDbEntity
8
0
100
AcDbBlockEnd
0
BLOCK
5
32C
100
AcDbEntity
8
0
100
AcDbBlockBegin
62
2
6
CONTINUOUS
2
*D17
70
65
10
0.0000000000
20
0.0000000000
3
*D17
1

0
TEXT
5
32D
100
AcDbEntity
8
0
100
AcDbText
62
2
6
CONTINUOUS
10
82.4664343215
20
183.2083011049
7
TEXTSTYLE_1
40
3.5000000000
1
=
50
90.0000000000
41
0.4000000000
72
0
100
AcDbText
0
TEXT
5
32E
100
AcDbEntity
8
0
100
AcDbText
62
2
6
CONTINUOUS
10
82.4664343215
20
188.3416344382
7
TEXTSTYLE_1
40
3.5000000000
1
=
50
90.0000000000
41
0.4000000000
72
0
100
AcDbText
0
TEXT
5
32F
100
AcDbEntity
8
0
100
AcDbText
62
2
6
CONTINUOUS
10
82.4664343215
20
184.6083011049
7
TEXTSTYLE_1
40
3.5000000000
1
10
50
90.0000000000
41
0.5333333333
72
0
100
AcDbText
0
LINE
5
330
100
AcDbEntity
8
0
100
AcDbLine
62
2
6
CONTINUOUS
10
136.2346374091
20
191.4841311557
11
80.1414343215
21
191.4841311557
0
LINE
5
331
100
AcDbEntity
8
0
100
AcDbLine
62
2
6
CONTINUOUS
10
136.2346374091
20
181.4841311557
11
93.9192178128
21
181.4841311557
0
LINE
5
332
100
AcDbEntity
8
0
100
AcDbLine
62
2
6
CONTINUOUS
10
87.6035989890
20
181.4841311557
11
80.1414343215
21
181.4841311557
0
LINE
5
333
100
AcDbEntity
8
0
100
AcDbLine
62
2
6
CONTINUOUS
10
83.3414343215
20
191.4841311557
11
83.3414343215
21
193.4841311557
0
LINE
5
334
100
AcDbEntity
8
0
100
AcDbLine
62
2
6
CONTINUOUS
10
83.3414343215
20
193.4841311557
11
83.3414343215
21
186.4841311557
0
LINE
5
335
100
AcDbEntity
8
0
100
AcDbLine
62
2
6
CONTINUOUS
10
83.3414343215
20
181.4841311557
11
83.3414343215
21
179.4841311557
0
LINE
5
336
100
AcDbEntity
8
0
100
AcDbLine
62
2
6
CONTINUOUS
10
83.3414343215
20
179.4841311557
11
83.3414343215
21
186.4841311557
0
SOLID
5
337
100
AcDbEntity
8
0
100
AcDbTrace
62
2
6
CONTINUOUS
10
82.5414343215
20
195.9841311557
11
83.3414343215
21
191.4841311557
12
84.1414343215
22
195.9841311557
13
84.1414343215
23
195.9841311557
0
SOLID
5
338
100
AcDbEntity
8
0
100
AcDbTrace
62
2
6
CONTINUOUS
10
84.1414343215
20
176.9841311557
11
83.3414343215
21
181.4841311557
12
82.5414343215
22
176.9841311557
13
82.5414343215
23
176.9841311557
0
ENDBLK
5
339
100
AcDbEntity
8
0
100
AcDbBlockEnd
0
BLOCK
5
33A
100
AcDbEntity
8
0
100
AcDbBlockBegin
62
2
6
CONTINUOUS
2
*D18
70
65
10
0.0000000000
20
0.0000000000
3
*D18
1

0
TEXT
5
33B
100
AcDbEntity
8
0
100
AcDbText
62
2
6
CONTINUOUS
10
106.7057253248
20
100.0739074897
7
TEXTSTYLE_1
40
3.5000000000
1
3
41
0.7333333333
72
0
100
AcDbText
0
LINE
5
33C
100
AcDbEntity
8
0
100
AcDbLine
62
2
6
CONTINUOUS
10
115.8874398408
20
117.9841311557
11
115.8874398408
21
95.9989074897
0
LINE
5
33D
100
AcDbEntity
8
0
100
AcDbLine
62
2
6
CONTINUOUS
10
118.8874398408
20
138.9841311557
11
118.8874398408
21
95.9989074897
0
LINE
5
33E
100
AcDbEntity
8
0
100
AcDbLine
62
2
6
CONTINUOUS
10
115.8874398408
20
99.1989074897
11
106.7057253248
21
99.1989074897
0
LINE
5
33F
100
AcDbEntity
8
0
100
AcDbLine
62
2
6
CONTINUOUS
10
106.7057253248
20
99.1989074897
11
117.3874398408
21
99.1989074897
0
LINE
5
340
100
AcDbEntity
8
0
100
AcDbLine
62
2
6
CONTINUOUS
10
118.8874398408
20
99.1989074897
11
120.8874398408
21
99.1989074897
0
LINE
5
341
100
AcDbEntity
8
0
100
AcDbLine
62
2
6
CONTINUOUS
10
120.8874398408
20
99.1989074897
11
117.3874398408
21
99.1989074897
0
SOLID
5
342
100
AcDbEntity
8
0
100
AcDbTrace
62
2
6
CONTINUOUS
10
111.3874398408
20
98.3989074897
11
115.8874398408
21
99.1989074897
12
111.3874398408
22
99.9989074897
13
111.3874398408
23
99.9989074897
0
SOLID
5
343
100
AcDbEntity
8
0
100
AcDbTrace
62
2
6
CONTINUOUS
10
123.3874398408
20
99.9989074897
11
118.8874398408
21
99.1989074897
12
123.3874398408
22
98.3989074897
13
123.3874398408
23
98.3989074897
0
ENDBLK
5
344
100
AcDbEntity
8
0
100
AcDbBlockEnd
0
BLOCK
5
345
100
AcDbEntity
8
0
100
AcDbBlockBegin
62
2
6
CONTINUOUS
2
*D19
70
65
10
0.0000000000
20
0.0000000000
3
*D19
1

0
TEXT
5
346
100
AcDbEntity
8
0
100
AcDbText
62
2
6
CONTINUOUS
10
137.3784845153
20
91.5484797687
7
TEXTSTYLE_1
40
3.5000000000
1
53,5
41
0.6291666667
72
0
100
AcDbText
0
LINE
5
347
100
AcDbEntity
8
0
100
AcDbLine
62
2
6
CONTINUOUS
10
115.8874398408
20
117.9841311557
11
115.8874398408
21
87.4734797687
0
LINE
5
348
100
AcDbEntity
8
0
100
AcDbLine
62
2
6
CONTINUOUS
10
169.3874398408
20
121.4841311557
11
169.3874398408
21
115.6044358044
0
LINE
5
349
100
AcDbEntity
8
0
100
AcDbLine
62
2
6
CONTINUOUS
10
169.3874398408
20
109.6852360465
11
169.3874398408
21
105.3444895573
0
LINE
5
34A
100
AcDbEntity
8
0
100
AcDbLine
62
2
6
CONTINUOUS
10
169.3874398408
20
96.5643432498
11
169.3874398408
21
87.4734797687
0
LINE
5
34B
100
AcDbEntity
8
0
100
AcDbLine
62
2
6
CONTINUOUS
10
115.8874398408
20
90.6734797687
11
142.6374398408
21
90.6734797687
0
LINE
5
34C
100
AcDbEntity
8
0
100
AcDbLine
62
2
6
CONTINUOUS
10
169.3874398408
20
90.6734797687
11
142.6374398408
21
90.6734797687
0
SOLID
5
34D
100
AcDbEntity
8
0
100
AcDbTrace
62
2
6
CONTINUOUS
10
120.3874398408
20
91.4734797687
11
115.8874398408
21
90.6734797687
12
120.3874398408
22
89.8734797687
13
120.3874398408
23
89.8734797687
0
SOLID
5
34E
100
AcDbEntity
8
0
100
AcDbTrace
62
2
6
CONTINUOUS
10
164.8874398408
20
89.8734797687
11
169.3874398408
21
90.6734797687
12
164.8874398408
22
91.4734797687
13
164.8874398408
23
91.4734797687
0
ENDBLK
5
34F
100
AcDbEntity
8
0
100
AcDbBlockEnd
0
BLOCK
5
350
100
AcDbEntity
8
0
100
AcDbBlockBegin
62
2
6
CONTINUOUS
2
*D20
70
65
10
0.0000000000
20
0.0000000000
3
*D20
1

0
TEXT
5
351
100
AcDbEntity
8
0
100
AcDbText
62
2
6
CONTINUOUS
10
84.1062022048
20
93.2917861918
7
TEXTSTYLE_1
40
3.5000000000
1
15%%d
41
0.5777777778
72
0
100
AcDbText
0
LINE
5
352
100
AcDbEntity
8
0
100
AcDbLine
62
2
6
CONTINUOUS
10
115.0783543123
20
119.4841311557
11
89.9576681138
21
119.4841311557
0
LINE
5
353
100
AcDbEntity
8
0
100
AcDbLine
62
2
6
CONTINUOUS
10
154.8763732749
20
119.0959025880
11
92.2190890371
21
102.3069338766
0
ARC
5
354
100
AcDbEntity
8
0
100
AcDbCircle
62
2
6
CONTINUOUS
10
156.3252620143
20
119.4841311557
40
63.1675939005
100
AcDbArc
50
180.0000000000
51
202.7645024233
0
SOLID
5
355
100
AcDbEntity
8
0
100
AcDbTrace
62
2
6
CONTINUOUS
10
93.1576681138
20
119.4841311557
11
94.1174146596
21
115.0154751421
12
92.5184295530
22
114.9584959448
13
92.5184295530
23
114.9584959448
0
SOLID
5
356
100
AcDbEntity
8
0
100
AcDbTrace
62
2
6
CONTINUOUS
10
95.3100516813
20
103.1351548209
11
93.5212740624
21
107.3411356376
12
95.0805223742
22
107.6999457578
13
95.0805223742
23
107.6999457578
0
ENDBLK
5
357
100
AcDbEntity
8
0
100
AcDbBlockEnd
0
BLOCK
5
358
100
AcDbEntity
8
0
100
AcDbBlockBegin
62
2
6
CONTINUOUS
2
*D21
70
65
10
0.0000000000
20
0.0000000000
3
*D21
1

0
TEXT
5
359
100
AcDbEntity
8
0
100
AcDbText
62
2
6
CONTINUOUS
10
154.5612174982
20
83.4573569231
7
TEXTSTYLE_1
40
3.5000000000
1
85
41
0.7333333333
72
0
100
AcDbText
0
LINE
5
35A
100
AcDbEntity
8
0
100
AcDbLine
62
2
6
CONTINUOUS
10
115.8874398408
20
117.9841311557
11
115.8874398408
21
79.3823569231
0
LINE
5
35B
100
AcDbEntity
8
0
100
AcDbLine
62
2
6
CONTINUOUS
10
200.8874398408
20
121.4841311557
11
200.8874398408
21
79.3823569231
0
LINE
5
35C
100
AcDbEntity
8
0
100
AcDbLine
62
2
6
CONTINUOUS
10
115.8874398408
20
82.5823569231
11
158.3874398408
21
82.5823569231
0
LINE
5
35D
100
AcDbEntity
8
0
100
AcDbLine
62
2
6
CONTINUOUS
10
200.8874398408
20
82.5823569231
11
158.3874398408
21
82.5823569231
0
SOLID
5
35E
100
AcDbEntity
8
0
100
AcDbTrace
62
2
6
CONTINUOUS
10
120.3874398408
20
83.3823569231
11
115.8874398408
21
82.5823569231
12
120.3874398408
22
81.7823569231
13
120.3874398408
23
81.7823569231
0
SOLID
5
35F
100
AcDbEntity
8
0
100
AcDbTrace
62
2
6
CONTINUOUS
10
196.3874398408
20
81.7823569231
11
200.8874398408
21
82.5823569231
12
196.3874398408
22
83.3823569231
13
196.3874398408
23
83.3823569231
0
ENDBLK
5
360
100
AcDbEntity
8
0
100
AcDbBlockEnd
0
BLOCK
5
361
100
AcDbEntity
8
0
100
AcDbBlockBegin
62
2
6
CONTINUOUS
2
*D22
70
65
10
0.0000000000
20
0.0000000000
3
*D22
1

0
TEXT
5
362
100
AcDbEntity
8
0
100
AcDbText
62
2
6
CONTINUOUS
10
157.4667895111
20
75.5057361956
7
TEXTSTYLE_1
40
3.5000000000
1
89,9
41
0.6291666667
72
0
100
AcDbText
0
LINE
5
363
100
AcDbEntity
8
0
100
AcDbLine
62
2
6
CONTINUOUS
10
115.8874398408
20
117.9841311557
11
115.8874398408
21
71.4307361956
0
LINE
5
364
100
AcDbEntity
8
0
100
AcDbLine
62
2
6
CONTINUOUS
10
205.8010380034
20
134.9841311557
11
205.8010380034
21
71.4307361956
0
LINE
5
365
100
AcDbEntity
8
0
100
AcDbLine
62
2
6
CONTINUOUS
10
115.8874398408
20
74.6307361956
11
160.8442389221
21
74.6307361956
0
LINE
5
366
100
AcDbEntity
8
0
100
AcDbLine
62
2
6
CONTINUOUS
10
205.8010380034
20
74.6307361956
11
160.8442389221
21
74.6307361956
0
SOLID
5
367
100
AcDbEntity
8
0
100
AcDbTrace
62
2
6
CONTINUOUS
10
120.3874398408
20
75.4307361956
11
115.8874398408
21
74.6307361956
12
120.3874398408
22
73.8307361956
13
120.3874398408
23
73.8307361956
0
SOLID
5
368
100
AcDbEntity
8
0
100
AcDbTrace
62
2
6
CONTINUOUS
10
201.3010380034
20
73.8307361956
11
205.8010380034
21
74.6307361956
12
201.3010380034
22
75.4307361956
13
201.3010380034
23
75.4307361956
0
ENDBLK
5
369
100
AcDbEntity
8
0
100
AcDbBlockEnd
0
BLOCK
5
36A
100
AcDbEntity
8
0
100
AcDbBlockBegin
62
2
6
CONTINUOUS
2
*D23
70
65
10
0.0000000000
20
0.0000000000
3
*D23
1

0
TEXT
5
36B
100
AcDbEntity
8
0
100
AcDbText
62
2
6
CONTINUOUS
10
213.6504799867
20
67.2751112320
7
TEXTSTYLE_1
40
3.5000000000
1
8
41
0.7333333333
72
0
100
AcDbText
0
LINE
5
36C
100
AcDbEntity
8
0
100
AcDbLine
62
2
6
CONTINUOUS
10
210.5874398408
20
134.9841311557
11
210.5874398408
21
63.2001112320
0
LINE
5
36D
100
AcDbEntity
8
0
100
AcDbLine
62
2
6
CONTINUOUS
10
218.5874398408
20
134.9841311557
11
218.5874398408
21
63.2001112320
0
LINE
5
36E
100
AcDbEntity
8
0
100
AcDbLine
62
2
6
CONTINUOUS
10
210.5874398408
20
66.4001112320
11
208.5874398408
21
66.4001112320
0
LINE
5
36F
100
AcDbEntity
8
0
100
AcDbLine
62
2
6
CONTINUOUS
10
208.5874398408
20
66.4001112320
11
214.5874398408
21
66.4001112320
0
LINE
5
370
100
AcDbEntity
8
0
100
AcDbLine
62
2
6
CONTINUOUS
10
218.5874398408
20
66.4001112320
11
220.5874398408
21
66.4001112320
0
LINE
5
371
100
AcDbEntity
8
0
100
AcDbLine
62
2
6
CONTINUOUS
10
220.5874398408
20
66.4001112320
11
214.5874398408
21
66.4001112320
0
SOLID
5
372
100
AcDbEntity
8
0
100
AcDbTrace
62
2
6
CONTINUOUS
10
206.0874398408
20
65.6001112320
11
210.5874398408
21
66.4001112320
12
206.0874398408
22
67.2001112320
13
206.0874398408
23
67.2001112320
0
SOLID
5
373
100
AcDbEntity
8
0
100
AcDbTrace
62
2
6
CONTINUOUS
10
223.0874398408
20
67.2001112320
11
218.5874398408
21
66.4001112320
12
223.0874398408
22
65.6001112320
13
223.0874398408
23
65.6001112320
0
ENDBLK
5
374
100
AcDbEntity
8
0
100
AcDbBlockEnd
0
BLOCK
5
375
100
AcDbEntity
8
0
100
AcDbBlockBegin
62
2
6
CONTINUOUS
2
*D24
70
65
10
0.0000000000
20
0.0000000000
3
*D24
1

0
TEXT
5
376
100
AcDbEntity
8
0
100
AcDbText
62
2
6
CONTINUOUS
10
224.3562925310
20
67.2751112320
7
TEXTSTYLE_1
40
3.5000000000
1
18,8
41
0.5291666667
72
0
100
AcDbText
0
LINE
5
377
100
AcDbEntity
8
0
100
AcDbLine
62
2
6
CONTINUOUS
10
218.5874398408
20
134.9841311557
11
218.5874398408
21
63.2001112320
0
LINE
5
378
100
AcDbEntity
8
0
100
AcDbLine
62
2
6
CONTINUOUS
10
237.3874398408
20
134.9841311557
11
237.3874398408
21
63.2001112320
0
LINE
5
379
100
AcDbEntity
8
0
100
AcDbLine
62
2
6
CONTINUOUS
10
218.5874398408
20
66.4001112320
11
227.9874398408
21
66.4001112320
0
LINE
5
37A
100
AcDbEntity
8
0
100
AcDbLine
62
2
6
CONTINUOUS
10
237.3874398408
20
66.4001112320
11
227.9874398408
21
66.4001112320
0
SOLID
5
37B
100
AcDbEntity
8
0
100
AcDbTrace
62
2
6
CONTINUOUS
10
223.0874398408
20
67.2001112320
11
218.5874398408
21
66.4001112320
12
223.0874398408
22
65.6001112320
13
223.0874398408
23
65.6001112320
0
SOLID
5
37C
100
AcDbEntity
8
0
100
AcDbTrace
62
2
6
CONTINUOUS
10
232.8874398408
20
65.6001112320
11
237.3874398408
21
66.4001112320
12
232.8874398408
22
67.2001112320
13
232.8874398408
23
67.2001112320
0
ENDBLK
5
37D
100
AcDbEntity
8
0
100
AcDbBlockEnd
0
BLOCK
5
37E
100
AcDbEntity
8
0
100
AcDbBlockBegin
62
2
6
CONTINUOUS
2
*D25
70
65
10
0.0000000000
20
0.0000000000
3
*D25
1

0
TEXT
5
37F
100
AcDbEntity
8
0
100
AcDbText
62
2
6
CONTINUOUS
10
240.4937333545
20
67.2751112320
7
TEXTSTYLE_1
40
3.5000000000
1
8
41
0.7333333333
72
0
100
AcDbText
0
LINE
5
380
100
AcDbEntity
8
0
100
AcDbLine
62
2
6
CONTINUOUS
10
237.3874398408
20
134.9841311557
11
237.3874398408
21
63.2001112320
0
LINE
5
381
100
AcDbEntity
8
0
100
AcDbLine
62
2
6
CONTINUOUS
10
245.3874398408
20
134.9841311557
11
245.3874398408
21
63.2001112320
0
LINE
5
382
100
AcDbEntity
8
0
100
AcDbLine
62
2
6
CONTINUOUS
10
237.3874398408
20
66.4001112320
11
235.3874398408
21
66.4001112320
0
LINE
5
383
100
AcDbEntity
8
0
100
AcDbLine
62
2
6
CONTINUOUS
10
235.3874398408
20
66.4001112320
11
241.3874398408
21
66.4001112320
0
LINE
5
384
100
AcDbEntity
8
0
100
AcDbLine
62
2
6
CONTINUOUS
10
245.3874398408
20
66.4001112320
11
247.3874398408
21
66.4001112320
0
LINE
5
385
100
AcDbEntity
8
0
100
AcDbLine
62
2
6
CONTINUOUS
10
247.3874398408
20
66.4001112320
11
241.3874398408
21
66.4001112320
0
SOLID
5
386
100
AcDbEntity
8
0
100
AcDbTrace
62
2
6
CONTINUOUS
10
232.8874398408
20
65.6001112320
11
237.3874398408
21
66.4001112320
12
232.8874398408
22
67.2001112320
13
232.8874398408
23
67.2001112320
0
SOLID
5
387
100
AcDbEntity
8
0
100
AcDbTrace
62
2
6
CONTINUOUS
10
249.8874398408
20
67.2001112320
11
245.3874398408
21
66.4001112320
12
249.8874398408
22
65.6001112320
13
249.8874398408
23
65.6001112320
0
ENDBLK
5
388
100
AcDbEntity
8
0
100
AcDbBlockEnd
0
BLOCK
5
389
100
AcDbEntity
8
0
100
AcDbBlockBegin
62
2
6
CONTINUOUS
2
*D26
70
65
10
0.0000000000
20
0.0000000000
3
*D26
1

0
TEXT
5
38A
100
AcDbEntity
8
0
100
AcDbText
62
2
6
CONTINUOUS
10
160.7087455950
20
67.2751112320
7
TEXTSTYLE_1
40
3.5000000000
1
94,7
41
0.6458333333
72
0
100
AcDbText
0
LINE
5
38B
100
AcDbEntity
8
0
100
AcDbLine
62
2
6
CONTINUOUS
10
210.5874398408
20
134.9841311557
11
210.5874398408
21
63.2001112320
0
LINE
5
38C
100
AcDbEntity
8
0
100
AcDbLine
62
2
6
CONTINUOUS
10
115.8874398408
20
117.9841311557
11
115.8874398408
21
63.2001112320
0
LINE
5
38D
100
AcDbEntity
8
0
100
AcDbLine
62
2
6
CONTINUOUS
10
210.5874398408
20
66.4001112320
11
163.2374398408
21
66.4001112320
0
LINE
5
38E
100
AcDbEntity
8
0
100
AcDbLine
62
2
6
CONTINUOUS
10
115.8874398408
20
66.4001112320
11
163.2374398408
21
66.4001112320
0
SOLID
5
38F
100
AcDbEntity
8
0
100
AcDbTrace
62
2
6
CONTINUOUS
10
206.0874398408
20
65.6001112320
11
210.5874398408
21
66.4001112320
12
206.0874398408
22
67.2001112320
13
206.0874398408
23
67.2001112320
0
SOLID
5
390
100
AcDbEntity
8
0
100
AcDbTrace
62
2
6
CONTINUOUS
10
120.3874398408
20
67.2001112320
11
115.8874398408
21
66.4001112320
12
120.3874398408
22
65.6001112320
13
120.3874398408
23
65.6001112320
0
ENDBLK
5
391
100
AcDbEntity
8
0
100
AcDbBlockEnd
0
BLOCK
5
392
100
AcDbEntity
8
0
100
AcDbBlockBegin
62
2
6
CONTINUOUS
2
*D27
70
65
10
0.0000000000
20
0.0000000000
3
*D27
1

0
TEXT
5
393
100
AcDbEntity
8
0
100
AcDbText
62
2
6
CONTINUOUS
10
173.3963642576
20
178.6790470517
7
TEXTSTYLE_1
40
3.5000000000
1
R
50
-44.9835372451
41
0.7666666667
72
0
100
AcDbText
0
TEXT
5
394
100
AcDbEntity
8
0
100
AcDbText
62
2
6
CONTINUOUS
10
175.2943125549
20
176.7821891133
7
TEXTSTYLE_1
40
3.5000000000
1
5
50
-44.9835372451
41
0.7333333333
72
0
100
AcDbText
0
LINE
5
395
100
AcDbEntity
8
0
100
AcDbLine
62
2
6
CONTINUOUS
10
167.8855506562
20
182.9496132581
11
176.4912007290
21
174.3489070753
0
SOLID
5
396
100
AcDbEntity
8
0
100
AcDbTrace
62
2
6
CONTINUOUS
10
171.6339681799
20
180.3343950898
11
167.8855506562
21
182.9496132581
12
170.5029224527
22
179.2026992107
13
170.5029224527
23
179.2026992107
0
ENDBLK
5
397
100
AcDbEntity
8
0
100
AcDbBlockEnd
0
BLOCK
5
398
100
AcDbEntity
8
0
100
AcDbBlockBegin
62
2
6
CONTINUOUS
2
*D28
70
65
10
0.0000000000
20
0.0000000000
3
*D28
1

0
TEXT
5
399
100
AcDbEntity
8
0
100
AcDbText
62
2
6
CONTINUOUS
10
149.2014185443
20
220.8154542801
7
TEXTSTYLE_1
40
3.5000000000
1
=
41
0.4000000000
72
0
100
AcDbText
0
TEXT
5
39A
100
AcDbEntity
8
0
100
AcDbText
62
2
6
CONTINUOUS
10
152.9347518776
20
220.8154542801
7
TEXTSTYLE_1
40
3.5000000000
1
=
41
0.4000000000
72
0
100
AcDbText
0
TEXT
5
39B
100
AcDbEntity
8
0
100
AcDbText
62
2
6
CONTINUOUS
10
150.6014185443
20
220.8154542801
7
TEXTSTYLE_1
40
3.5000000000
1
11
41
0.3333333333
72
0
100
AcDbText
0
LINE
5
39C
100
AcDbEntity
8
0
100
AcDbLine
62
2
6
CONTINUOUS
10
146.3490010338
20
169.7342311557
11
146.3490010338
21
209.5054046994
0
LINE
5
39D
100
AcDbEntity
8
0
100
AcDbLine
62
2
6
CONTINUOUS
10
146.3490010338
20
215.9439905573
11
146.3490010338
21
223.1404542801
0
LINE
5
39E
100
AcDbEntity
8
0
100
AcDbLine
62
2
6
CONTINUOUS
10
157.3490010338
20
169.7342311557
11
157.3490010338
21
223.1404542801
0
LINE
5
39F
100
AcDbEntity
8
0
100
AcDbLine
62
2
6
CONTINUOUS
10
146.3490010338
20
219.9404542801
11
144.3490010338
21
219.9404542801
0
LINE
5
3A0
100
AcDbEntity
8
0
100
AcDbLine
62
2
6
CONTINUOUS
10
144.3490010338
20
219.9404542801
11
151.8490010338
21
219.9404542801
0
LINE
5
3A1
100
AcDbEntity
8
0
100
AcDbLine
62
2
6
CONTINUOUS
10
157.3490010338
20
219.9404542801
11
159.3490010338
21
219.9404542801
0
LINE
5
3A2
100
AcDbEntity
8
0
100
AcDbLine
62
2
6
CONTINUOUS
10
159.3490010338
20
219.9404542801
11
151.8490010338
21
219.9404542801
0
SOLID
5
3A3
100
AcDbEntity
8
0
100
AcDbTrace
62
2
6
CONTINUOUS
10
141.8490010338
20
219.1404542801
11
146.3490010338
21
219.9404542801
12
141.8490010338
22
220.7404542801
13
141.8490010338
23
220.7404542801
0
SOLID
5
3A4
100
AcDbEntity
8
0
100
AcDbTrace
62
2
6
CONTINUOUS
10
161.8490010338
20
220.7404542801
11
157.3490010338
21
219.9404542801
12
161.8490010338
22
219.1404542801
13
161.8490010338
23
219.1404542801
0
ENDBLK
5
3A5
100
AcDbEntity
8
0
100
AcDbBlockEnd
0
BLOCK
5
3A6
100
AcDbEntity
8
0
100
AcDbBlockBegin
62
2
6
CONTINUOUS
2
*D29
70
65
10
0.0000000000
20
0.0000000000
3
*D29
1

0
TEXT
5
3A7
100
AcDbEntity
8
0
100
AcDbText
62
2
6
CONTINUOUS
10
148.4934653913
20
240.3439082257
7
TEXTSTYLE_1
40
3.5000000000
1
=
41
0.4000000000
72
0
100
AcDbText
0
TEXT
5
3A8
100
AcDbEntity
8
0
100
AcDbText
62
2
6
CONTINUOUS
10
155.0267987247
20
240.3439082257
7
TEXTSTYLE_1
40
3.5000000000
1
=
41
0.4000000000
72
0
100
AcDbText
0
TEXT
5
3A9
100
AcDbEntity
8
0
100
AcDbText
62
2
6
CONTINUOUS
10
149.8934653913
20
240.3439082257
7
TEXTSTYLE_1
40
3.5000000000
1
36
41
0.7333333333
72
0
100
AcDbText
0
LINE
5
3AA
100
AcDbEntity
8
0
100
AcDbLine
62
2
6
CONTINUOUS
10
133.8490010338
20
236.5289198154
11
133.8490010338
21
242.6689082257
0
LINE
5
3AB
100
AcDbEntity
8
0
100
AcDbLine
62
2
6
CONTINUOUS
10
169.8490010338
20
236.6415567311
11
169.8490010338
21
242.6689082257
0
LINE
5
3AC
100
AcDbEntity
8
0
100
AcDbLine
62
2
6
CONTINUOUS
10
133.8490010338
20
239.4689082257
11
151.8490010338
21
239.4689082257
0
LINE
5
3AD
100
AcDbEntity
8
0
100
AcDbLine
62
2
6
CONTINUOUS
10
169.8490010338
20
239.4689082257
11
151.8490010338
21
239.4689082257
0
SOLID
5
3AE
100
AcDbEntity
8
0
100
AcDbTrace
62
2
6
CONTINUOUS
10
138.3490010338
20
240.2689082257
11
133.8490010338
21
239.4689082257
12
138.3490010338
22
238.6689082257
13
138.3490010338
23
238.6689082257
0
SOLID
5
3AF
100
AcDbEntity
8
0
100
AcDbTrace
62
2
6
CONTINUOUS
10
165.3490010338
20
238.6689082257
11
169.8490010338
21
239.4689082257
12
165.3490010338
22
240.2689082257
13
165.3490010338
23
240.2689082257
0
ENDBLK
5
3B0
100
AcDbEntity
8
0
100
AcDbBlockEnd
0
BLOCK
5
3B1
100
AcDbEntity
8
0
100
AcDbBlockBegin
62
2
6
CONTINUOUS
2
*D30
70
65
10
0.0000000000
20
0.0000000000
3
*D30
1

0
TEXT
5
3B2
100
AcDbEntity
8
0
100
AcDbText
62
2
6
CONTINUOUS
10
130.4585072202
20
240.3439082257
7
TEXTSTYLE_1
40
3.5000000000
1
4
41
0.8000000000
72
0
100
AcDbText
0
LINE
5
3B3
100
AcDbEntity
8
0
100
AcDbLine
62
2
6
CONTINUOUS
10
133.8490010338
20
165.4842311557
11
133.8490010338
21
209.3933925523
0
LINE
5
3B4
100
AcDbEntity
8
0
100
AcDbLine
62
2
6
CONTINUOUS
10
133.8490010338
20
219.0515136401
11
133.8490010338
21
242.6689082257
0
LINE
5
3B5
100
AcDbEntity
8
0
100
AcDbLine
62
2
6
CONTINUOUS
10
129.8490010338
20
165.4842311557
11
129.8490010338
21
209.7467384457
0
LINE
5
3B6
100
AcDbEntity
8
0
100
AcDbLine
62
2
6
CONTINUOUS
10
129.8490010338
20
218.4626038176
11
129.8490010338
21
242.6689082257
0
LINE
5
3B7
100
AcDbEntity
8
0
100
AcDbLine
62
2
6
CONTINUOUS
10
133.8490010338
20
239.4689082257
11
135.8490010338
21
239.4689082257
0
LINE
5
3B8
100
AcDbEntity
8
0
100
AcDbLine
62
2
6
CONTINUOUS
10
135.8490010338
20
239.4689082257
11
131.8490010338
21
239.4689082257
0
LINE
5
3B9
100
AcDbEntity
8
0
100
AcDbLine
62
2
6
CONTINUOUS
10
129.8490010338
20
239.4689082257
11
127.8490010338
21
239.4689082257
0
LINE
5
3BA
100
AcDbEntity
8
0
100
AcDbLine
62
2
6
CONTINUOUS
10
127.8490010338
20
239.4689082257
11
131.8490010338
21
239.4689082257
0
SOLID
5
3BB
100
AcDbEntity
8
0
100
AcDbTrace
62
2
6
CONTINUOUS
10
138.3490010338
20
240.2689082257
11
133.8490010338
21
239.4689082257
12
138.3490010338
22
238.6689082257
13
138.3490010338
23
238.6689082257
0
SOLID
5
3BC
100
AcDbEntity
8
0
100
AcDbTrace
62
2
6
CONTINUOUS
10
125.3490010338
20
238.6689082257
11
129.8490010338
21
239.4689082257
12
125.3490010338
22
240.2689082257
13
125.3490010338
23
240.2689082257
0
ENDBLK
5
3BD
100
AcDbEntity
8
0
100
AcDbBlockEnd
0
BLOCK
5
3BE
100
AcDbEntity
8
0
100
AcDbBlockBegin
62
2
6
CONTINUOUS
2
*D31
70
65
10
0.0000000000
20
0.0000000000
3
*D31
1

0
TEXT
5
3BF
100
AcDbEntity
8
0
100
AcDbText
62
2
6
CONTINUOUS
10
170.4030176734
20
240.3439082257
7
TEXTSTYLE_1
40
3.5000000000
1
4
41
0.8000000000
72
0
100
AcDbText
0
LINE
5
3C0
100
AcDbEntity
8
0
100
AcDbLine
62
2
6
CONTINUOUS
10
169.8490010338
20
165.4842311557
11
169.8490010338
21
177.5680512076
0
LINE
5
3C1
100
AcDbEntity
8
0
100
AcDbLine
62
2
6
CONTINUOUS
10
169.8490010338
20
183.9431561564
11
169.8490010338
21
242.6689082257
0
LINE
5
3C2
100
AcDbEntity
8
0
100
AcDbLine
62
2
6
CONTINUOUS
10
173.8490010338
20
165.4842311557
11
173.8490010338
21
174.6947644700
0
LINE
5
3C3
100
AcDbEntity
8
0
100
AcDbLine
62
2
6
CONTINUOUS
10
173.8490010338
20
183.6737855248
11
173.8490010338
21
209.1780189778
0
LINE
5
3C4
100
AcDbEntity
8
0
100
AcDbLine
62
2
6
CONTINUOUS
10
173.8490010338
20
215.9439905573
11
173.8490010338
21
242.6689082257
0
LINE
5
3C5
100
AcDbEntity
8
0
100
AcDbLine
62
2
6
CONTINUOUS
10
169.8490010338
20
239.4689082257
11
167.8490010338
21
239.4689082257
0
LINE
5
3C6
100
AcDbEntity
8
0
100
AcDbLine
62
2
6
CONTINUOUS
10
167.8490010338
20
239.4689082257
11
171.8490010338
21
239.4689082257
0
LINE
5
3C7
100
AcDbEntity
8
0
100
AcDbLine
62
2
6
CONTINUOUS
10
173.8490010338
20
239.4689082257
11
175.8490010338
21
239.4689082257
0
LINE
5
3C8
100
AcDbEntity
8
0
100
AcDbLine
62
2
6
CONTINUOUS
10
175.8490010338
20
239.4689082257
11
171.8490010338
21
239.4689082257
0
SOLID
5
3C9
100
AcDbEntity
8
0
100
AcDbTrace
62
2
6
CONTINUOUS
10
165.3490010338
20
238.6689082257
11
169.8490010338
21
239.4689082257
12
165.3490010338
22
240.2689082257
13
165.3490010338
23
240.2689082257
0
SOLID
5
3CA
100
AcDbEntity
8
0
100
AcDbTrace
62
2
6
CONTINUOUS
10
178.3490010338
20
240.2689082257
11
173.8490010338
21
239.4689082257
12
178.3490010338
22
238.6689082257
13
178.3490010338
23
238.6689082257
0
ENDBLK
5
3CB
100
AcDbEntity
8
0
100
AcDbBlockEnd
0
BLOCK
5
3CC
100
AcDbEntity
8
0
100
AcDbBlockBegin
62
2
6
CONTINUOUS
2
*D32
70
65
10
0.0000000000
20
0.0000000000
3
*D32
1

0
TEXT
5
3CD
100
AcDbEntity
8
0
100
AcDbText
62
2
6
CONTINUOUS
10
130.7637196762
20
213.2838589583
7
TEXTSTYLE_1
40
3.5000000000
1
36
41
0.7333333333
72
0
100
AcDbText
0
LINE
5
3CE
100
AcDbEntity
8
0
100
AcDbLine
62
2
6
CONTINUOUS
10
115.8874398408
20
204.9841311557
11
115.8874398408
21
215.6088589583
0
LINE
5
3CF
100
AcDbEntity
8
0
100
AcDbLine
62
2
6
CONTINUOUS
10
151.8490010338
20
212.0341311557
11
151.8490010338
21
209.2088589583
0
LINE
5
3D0
100
AcDbEntity
8
0
100
AcDbLine
62
2
6
CONTINUOUS
10
115.8874398408
20
212.4088589583
11
133.8682204373
21
212.4088589583
0
LINE
5
3D1
100
AcDbEntity
8
0
100
AcDbLine
62
2
6
CONTINUOUS
10
151.8490010338
20
212.4088589583
11
133.8682204373
21
212.4088589583
0
SOLID
5
3D2
100
AcDbEntity
8
0
100
AcDbTrace
62
2
6
CONTINUOUS
10
120.3874398408
20
213.2088589583
11
115.8874398408
21
212.4088589583
12
120.3874398408
22
211.6088589583
13
120.3874398408
23
211.6088589583
0
SOLID
5
3D3
100
AcDbEntity
8
0
100
AcDbTrace
62
2
6
CONTINUOUS
10
147.3490010338
20
211.6088589583
11
151.8490010338
21
212.4088589583
12
147.3490010338
22
213.2088589583
13
147.3490010338
23
213.2088589583
0
ENDBLK
5
3D4
100
AcDbEntity
8
0
100
AcDbBlockEnd
0
BLOCK
5
3D5
100
AcDbEntity
8
0
100
AcDbBlockBegin
62
2
6
CONTINUOUS
2
*D33
70
65
10
0.0000000000
20
0.0000000000
3
*D33
1

0
TEXT
5
3D6
100
AcDbEntity
8
0
100
AcDbText
62
2
6
CONTINUOUS
10
154.0182440680
20
265.3808404144
7
TEXTSTYLE_1
40
3.5000000000
1
93,5
41
0.6291666667
72
0
100
AcDbText
0
LINE
5
3D7
100
AcDbEntity
8
0
100
AcDbLine
62
2
6
CONTINUOUS
10
209.3874398408
20
166.9841311557
11
209.3874398408
21
251.2706331704
0
LINE
5
3D8
100
AcDbEntity
8
0
100
AcDbLine
62
2
6
CONTINUOUS
10
209.3874398408
20
261.7587961597
11
209.3874398408
21
267.7058404144
0
LINE
5
3D9
100
AcDbEntity
8
0
100
AcDbLine
62
2
6
CONTINUOUS
10
115.8874398408
20
204.9841311557
11
115.8874398408
21
267.7058404144
0
LINE
5
3DA
100
AcDbEntity
8
0
100
AcDbLine
62
2
6
CONTINUOUS
10
209.3874398408
20
264.5058404144
11
162.6374398408
21
264.5058404144
0
LINE
5
3DB
100
AcDbEntity
8
0
100
AcDbLine
62
2
6
CONTINUOUS
10
115.8874398408
20
264.5058404144
11
162.6374398408
21
264.5058404144
0
SOLID
5
3DC
100
AcDbEntity
8
0
100
AcDbTrace
62
2
6
CONTINUOUS
10
204.8874398408
20
263.7058404144
11
209.3874398408
21
264.5058404144
12
204.8874398408
22
265.3058404144
13
204.8874398408
23
265.3058404144
0
SOLID
5
3DD
100
AcDbEntity
8
0
100
AcDbTrace
62
2
6
CONTINUOUS
10
120.3874398408
20
265.3058404144
11
115.8874398408
21
264.5058404144
12
120.3874398408
22
263.7058404144
13
120.3874398408
23
263.7058404144
0
ENDBLK
5
3DE
100
AcDbEntity
8
0
100
AcDbBlockEnd
0
BLOCK
5
3DF
100
AcDbEntity
8
0
100
AcDbBlockBegin
62
2
6
CONTINUOUS
2
*D34
70
65
10
0.0000000000
20
0.0000000000
3
*D34
1

0
TEXT
5
3E0
100
AcDbEntity
8
0
100
AcDbText
62
2
6
CONTINUOUS
10
229.7574003437
20
265.3808404144
7
TEXTSTYLE_1
40
3.5000000000
1
40
41
0.7666666667
72
0
100
AcDbText
0
LINE
5
3E1
100
AcDbEntity
8
0
100
AcDbLine
62
2
6
CONTINUOUS
10
209.3874398408
20
262.2678590351
11
209.3874398408
21
267.7058404144
0
LINE
5
3E2
100
AcDbEntity
8
0
100
AcDbLine
62
2
6
CONTINUOUS
10
249.3874398408
20
166.9841311557
11
249.3874398408
21
209.7600264864
0
LINE
5
3E3
100
AcDbEntity
8
0
100
AcDbLine
62
2
6
CONTINUOUS
10
249.3874398408
20
220.7505730978
11
249.3874398408
21
251.5264420238
0
LINE
5
3E4
100
AcDbEntity
8
0
100
AcDbLine
62
2
6
CONTINUOUS
10
249.3874398408
20
262.2704138664
11
249.3874398408
21
267.7058404144
0
LINE
5
3E5
100
AcDbEntity
8
0
100
AcDbLine
62
2
6
CONTINUOUS
10
209.3874398408
20
264.5058404144
11
229.3874398408
21
264.5058404144
0
LINE
5
3E6
100
AcDbEntity
8
0
100
AcDbLine
62
2
6
CONTINUOUS
10
249.3874398408
20
264.5058404144
11
229.3874398408
21
264.5058404144
0
SOLID
5
3E7
100
AcDbEntity
8
0
100
AcDbTrace
62
2
6
CONTINUOUS
10
213.8874398408
20
265.3058404144
11
209.3874398408
21
264.5058404144
12
213.8874398408
22
263.7058404144
13
213.8874398408
23
263.7058404144
0
SOLID
5
3E8
100
AcDbEntity
8
0
100
AcDbTrace
62
2
6
CONTINUOUS
10
244.8874398408
20
263.7058404144
11
249.3874398408
21
264.5058404144
12
244.8874398408
22
265.3058404144
13
244.8874398408
23
265.3058404144
0
ENDBLK
5
3E9
100
AcDbEntity
8
0
100
AcDbBlockEnd
0
BLOCK
5
3EA
100
AcDbEntity
8
0
100
AcDbBlockBegin
62
2
6
CONTINUOUS
2
*D35
70
65
10
0.0000000000
20
0.0000000000
3
*D35
1

0
TEXT
5
3EB
100
AcDbEntity
8
0
100
AcDbText
62
2
6
CONTINUOUS
10
289.2259076137
20
157.1334045165
7
TEXTSTYLE_1
40
3.5000000000
1
=
50
90.0000000000
41
0.4000000000
72
0
100
AcDbText
0
TEXT
5
3EC
100
AcDbEntity
8
0
100
AcDbText
62
2
6
CONTINUOUS
10
289.2259076137
20
163.6667378499
7
TEXTSTYLE_1
40
3.5000000000
1
=
50
90.0000000000
41
0.4000000000
72
0
100
AcDbText
0
TEXT
5
3ED
100
AcDbEntity
8
0
100
AcDbText
62
2
6
CONTINUOUS
10
289.2259076137
20
158.5334045165
7
TEXTSTYLE_1
40
3.5000000000
1
23
50
90.0000000000
41
0.7333333333
72
0
100
AcDbText
0
LINE
5
3EE
100
AcDbEntity
8
0
100
AcDbLine
62
2
6
CONTINUOUS
10
268.3874398408
20
173.0383569339
11
277.2488694220
21
173.0383569339
0
LINE
5
3EF
100
AcDbEntity
8
0
100
AcDbLine
62
2
6
CONTINUOUS
10
283.1805793566
20
173.0383569339
11
293.3009076137
21
173.0383569339
0
LINE
5
3F0
100
AcDbEntity
8
0
100
AcDbLine
62
2
6
CONTINUOUS
10
268.3874398408
20
149.9899053775
11
276.8534220930
21
149.9899053775
0
LINE
5
3F1
100
AcDbEntity
8
0
100
AcDbLine
62
2
6
CONTINUOUS
10
283.4771648534
20
149.9899053775
11
293.3009076137
21
149.9899053775
0
LINE
5
3F2
100
AcDbEntity
8
0
100
AcDbLine
62
2
6
CONTINUOUS
10
290.1009076137
20
173.0383569339
11
290.1009076137
21
161.5141311557
0
LINE
5
3F3
100
AcDbEntity
8
0
100
AcDbLine
62
2
6
CONTINUOUS
10
290.1009076137
20
149.9899053775
11
290.1009076137
21
161.5141311557
0
SOLID
5
3F4
100
AcDbEntity
8
0
100
AcDbTrace
62
2
6
CONTINUOUS
10
290.9009076137
20
168.5383569339
11
290.1009076137
21
173.0383569339
12
289.3009076137
22
168.5383569339
13
289.3009076137
23
168.5383569339
0
SOLID
5
3F5
100
AcDbEntity
8
0
100
AcDbTrace
62
2
6
CONTINUOUS
10
289.3009076137
20
154.4899053775
11
290.1009076137
21
149.9899053775
12
290.9009076137
22
154.4899053775
13
290.9009076137
23
154.4899053775
0
ENDBLK
5
3F6
100
AcDbEntity
8
0
100
AcDbBlockEnd
0
BLOCK
5
3F7
100
AcDbEntity
8
0
100
AcDbBlockBegin
62
2
6
CONTINUOUS
2
*D36
70
65
10
0.0000000000
20
0.0000000000
3
*D36
1

0
TEXT
5
3F8
100
AcDbEntity
8
0
100
AcDbText
62
2
6
CONTINUOUS
10
305.9335572630
20
157.8254373422
7
TEXTSTYLE_1
40
3.5000000000
1
=
50
90.0000000000
41
0.4000000000
72
0
100
AcDbText
0
TEXT
5
3F9
100
AcDbEntity
8
0
100
AcDbText
62
2
6
CONTINUOUS
10
305.9335572630
20
159.2254373422
7
TEXTSTYLE_1
40
3.5000000000
1
38
50
90.0000000000
41
0.7333333333
72
0
100
AcDbText
0
TEXT
5
3FA
100
AcDbEntity
8
0
100
AcDbText
62
2
6
CONTINUOUS
10
305.9335572630
20
164.3587706756
7
TEXTSTYLE_1
40
3.5000000000
1
=
50
90.0000000000
41
0.4000000000
72
0
100
AcDbText
0
LINE
5
3FB
100
AcDbEntity
8
0
100
AcDbLine
62
2
6
CONTINUOUS
10
264.8874398408
20
180.5441311557
11
310.0085572630
21
180.5441311557
0
LINE
5
3FC
100
AcDbEntity
8
0
100
AcDbLine
62
2
6
CONTINUOUS
10
264.8874398408
20
142.4841311557
11
310.0085572630
21
142.4841311557
0
LINE
5
3FD
100
AcDbEntity
8
0
100
AcDbLine
62
2
6
CONTINUOUS
10
306.8085572630
20
180.5441311557
11
306.8085572630
21
161.5141311557
0
LINE
5
3FE
100
AcDbEntity
8
0
100
AcDbLine
62
2
6
CONTINUOUS
10
306.8085572630
20
142.4841311557
11
306.8085572630
21
161.5141311557
0
SOLID
5
3FF
100
AcDbEntity
8
0
100
AcDbTrace
62
2
6
CONTINUOUS
10
307.6085572630
20
176.0441311557
11
306.8085572630
21
180.5441311557
12
306.0085572630
22
176.0441311557
13
306.0085572630
23
176.0441311557
0
SOLID
5
400
100
AcDbEntity
8
0
100
AcDbTrace
62
2
6
CONTINUOUS
10
306.0085572630
20
146.9841311557
11
306.8085572630
21
142.4841311557
12
307.6085572630
22
146.9841311557
13
307.6085572630
23
146.9841311557
0
ENDBLK
5
401
100
AcDbEntity
8
0
100
AcDbBlockEnd
0
BLOCK
5
402
100
AcDbEntity
8
0
100
AcDbBlockBegin
62
2
6
CONTINUOUS
2
*D37
70
65
10
0.0000000000
20
0.0000000000
3
*D37
1

0
TEXT
5
403
100
AcDbEntity
8
0
100
AcDbText
62
2
6
CONTINUOUS
10
190.4678751507
20
282.6058411845
7
TEXTSTYLE_1
40
3.5000000000
1
151
41
0.4666666667
72
0
100
AcDbText
0
LINE
5
404
100
AcDbEntity
8
0
100
AcDbLine
62
2
6
CONTINUOUS
10
266.8874398408
20
174.5383569339
11
266.8874398408
21
284.9308411845
0
LINE
5
405
100
AcDbEntity
8
0
100
AcDbLine
62
2
6
CONTINUOUS
10
115.8874398408
20
204.9841311557
11
115.8874398408
21
284.9308411845
0
LINE
5
406
100
AcDbEntity
8
0
100
AcDbLine
62
2
6
CONTINUOUS
10
266.8874398408
20
281.7308411845
11
191.3874398408
21
281.7308411845
0
LINE
5
407
100
AcDbEntity
8
0
100
AcDbLine
62
2
6
CONTINUOUS
10
115.8874398408
20
281.7308411845
11
191.3874398408
21
281.7308411845
0
SOLID
5
408
100
AcDbEntity
8
0
100
AcDbTrace
62
2
6
CONTINUOUS
10
262.3874398408
20
280.9308411845
11
266.8874398408
21
281.7308411845
12
262.3874398408
22
282.5308411845
13
262.3874398408
23
282.5308411845
0
SOLID
5
409
100
AcDbEntity
8
0
100
AcDbTrace
62
2
6
CONTINUOUS
10
120.3874398408
20
282.5308411845
11
115.8874398408
21
281.7308411845
12
120.3874398408
22
280.9308411845
13
120.3874398408
23
280.9308411845
0
ENDBLK
5
40A
100
AcDbEntity
8
0
100
AcDbBlockEnd
0
BLOCK
5
40B
100
AcDbEntity
8
0
100
AcDbBlockBegin
62
2
6
CONTINUOUS
2
*D38
70
65
10
0.0000000000
20
0.0000000000
3
*D38
1

0
TEXT
5
40C
100
AcDbEntity
8
0
100
AcDbText
62
2
6
CONTINUOUS
10
151.9219442081
20
257.0220607958
7
TEXTSTYLE_1
40
3.5000000000
1
85
41
0.7333333333
72
0
100
AcDbText
0
LINE
5
40D
100
AcDbEntity
8
0
100
AcDbLine
62
2
6
CONTINUOUS
10
200.8874398408
20
192.0341311557
11
200.8874398408
21
259.3470607958
0
LINE
5
40E
100
AcDbEntity
8
0
100
AcDbLine
62
2
6
CONTINUOUS
10
115.8874398408
20
204.9841311557
11
115.8874398408
21
259.3470607958
0
LINE
5
40F
100
AcDbEntity
8
0
100
AcDbLine
62
2
6
CONTINUOUS
10
200.8874398408
20
256.1470607958
11
158.3874398408
21
256.1470607958
0
LINE
5
410
100
AcDbEntity
8
0
100
AcDbLine
62
2
6
CONTINUOUS
10
115.8874398408
20
256.1470607958
11
158.3874398408
21
256.1470607958
0
SOLID
5
411
100
AcDbEntity
8
0
100
AcDbTrace
62
2
6
CONTINUOUS
10
196.3874398408
20
255.3470607958
11
200.8874398408
21
256.1470607958
12
196.3874398408
22
256.9470607958
13
196.3874398408
23
256.9470607958
0
SOLID
5
412
100
AcDbEntity
8
0
100
AcDbTrace
62
2
6
CONTINUOUS
10
120.3874398408
20
256.9470607958
11
115.8874398408
21
256.1470607958
12
120.3874398408
22
255.3470607958
13
120.3874398408
23
255.3470607958
0
ENDBLK
5
413
100
AcDbEntity
8
0
100
AcDbBlockEnd
0
BLOCK
5
414
100
AcDbEntity
8
0
100
AcDbBlockBegin
62
2
6
CONTINUOUS
2
*D39
70
65
10
0.0000000000
20
0.0000000000
3
*D39
1

0
TEXT
5
415
100
AcDbEntity
8
0
100
AcDbText
62
2
6
CONTINUOUS
10
211.9147207353
20
257.0220607958
7
TEXTSTYLE_1
40
3.5000000000
1
28,5
41
0.6291666667
72
0
100
AcDbText
0
LINE
5
416
100
AcDbEntity
8
0
100
AcDbLine
62
2
6
CONTINUOUS
10
200.8874398408
20
192.0341311557
11
200.8874398408
21
259.3470607958
0
LINE
5
417
100
AcDbEntity
8
0
100
AcDbLine
62
2
6
CONTINUOUS
10
229.3874398408
20
192.0341311557
11
229.3874398408
21
259.3470607958
0
LINE
5
418
100
AcDbEntity
8
0
100
AcDbLine
62
2
6
CONTINUOUS
10
200.8874398408
20
256.1470607958
11
215.1374398408
21
256.1470607958
0
LINE
5
419
100
AcDbEntity
8
0
100
AcDbLine
62
2
6
CONTINUOUS
10
229.3874398408
20
256.1470607958
11
215.1374398408
21
256.1470607958
0
SOLID
5
41A
100
AcDbEntity
8
0
100
AcDbTrace
62
2
6
CONTINUOUS
10
205.3874398408
20
256.9470607958
11
200.8874398408
21
256.1470607958
12
205.3874398408
22
255.3470607958
13
205.3874398408
23
255.3470607958
0
SOLID
5
41B
100
AcDbEntity
8
0
100
AcDbTrace
62
2
6
CONTINUOUS
10
224.8874398408
20
255.3470607958
11
229.3874398408
21
256.1470607958
12
224.8874398408
22
256.9470607958
13
224.8874398408
23
256.9470607958
0
ENDBLK
5
41C
100
AcDbEntity
8
0
100
AcDbBlockEnd
0
BLOCK
5
41D
100
AcDbEntity
8
0
100
AcDbBlockBegin
62
2
6
CONTINUOUS
2
*D40
70
65
10
0.0000000000
20
0.0000000000
3
*D40
1

0
TEXT
5
41E
100
AcDbEntity
8
0
100
AcDbText
62
2
6
CONTINUOUS
10
239.7000486667
20
257.0220607958
7
TEXTSTYLE_1
40
3.5000000000
1
28,5
41
0.6291666667
72
0
100
AcDbText
0
LINE
5
41F
100
AcDbEntity
8
0
100
AcDbLine
62
2
6
CONTINUOUS
10
257.8874398408
20
184.9841311557
11
257.8874398408
21
259.3470607958
0
LINE
5
420
100
AcDbEntity
8
0
100
AcDbLine
62
2
6
CONTINUOUS
10
229.3874398408
20
184.9841311557
11
229.3874398408
21
259.3470607958
0
LINE
5
421
100
AcDbEntity
8
0
100
AcDbLine
62
2
6
CONTINUOUS
10
257.8874398408
20
256.1470607958
11
243.6374398408
21
256.1470607958
0
LINE
5
422
100
AcDbEntity
8
0
100
AcDbLine
62
2
6
CONTINUOUS
10
229.3874398408
20
256.1470607958
11
243.6374398408
21
256.1470607958
0
SOLID
5
423
100
AcDbEntity
8
0
100
AcDbTrace
62
2
6
CONTINUOUS
10
253.3874398408
20
255.3470607958
11
257.8874398408
21
256.1470607958
12
253.3874398408
22
256.9470607958
13
253.3874398408
23
256.9470607958
0
SOLID
5
424
100
AcDbEntity
8
0
100
AcDbTrace
62
2
6
CONTINUOUS
10
233.8874398408
20
256.9470607958
11
229.3874398408
21
256.1470607958
12
233.8874398408
22
255.3470607958
13
233.8874398408
23
255.3470607958
0
ENDBLK
5
425
100
AcDbEntity
8
0
100
AcDbBlockEnd
0
BLOCK
5
426
100
AcDbEntity
8
0
100
AcDbBlockBegin
62
2
6
CONTINUOUS
2
*D41
70
65
10
0.0000000000
20
0.0000000000
3
*D41
1

0
TEXT
5
427
100
AcDbEntity
8
0
100
AcDbText
62
2
6
CONTINUOUS
10
212.0594858272
20
213.2838589583
7
TEXTSTYLE_1
40
3.5000000000
1
=
41
0.4000000000
72
0
100
AcDbText
0
TEXT
5
428
100
AcDbEntity
8
0
100
AcDbText
62
2
6
CONTINUOUS
10
219.7011524939
20
213.2838589583
7
TEXTSTYLE_1
40
3.5000000000
1
=
41
0.4000000000
72
0
100
AcDbText
0
TEXT
5
429
100
AcDbEntity
8
0
100
AcDbText
62
2
6
CONTINUOUS
10
213.4594858272
20
213.2838589583
7
TEXTSTYLE_1
40
3.5000000000
1
5,3
41
0.5944444444
72
0
100
AcDbText
0
LINE
5
42A
100
AcDbEntity
8
0
100
AcDbLine
62
2
6
CONTINUOUS
10
226.7305855913
20
187.9841311557
11
226.7305855913
21
215.6088589583
0
LINE
5
42B
100
AcDbEntity
8
0
100
AcDbLine
62
2
6
CONTINUOUS
10
232.0442940903
20
187.9841311557
11
232.0442940903
21
215.6088589583
0
LINE
5
42C
100
AcDbEntity
8
0
100
AcDbLine
62
2
6
CONTINUOUS
10
226.7305855913
20
212.4088589583
11
212.0594858272
21
212.4088589583
0
LINE
5
42D
100
AcDbEntity
8
0
100
AcDbLine
62
2
6
CONTINUOUS
10
212.0594858272
20
212.4088589583
11
229.3874398408
21
212.4088589583
0
LINE
5
42E
100
AcDbEntity
8
0
100
AcDbLine
62
2
6
CONTINUOUS
10
232.0442940903
20
212.4088589583
11
234.0442940903
21
212.4088589583
0
LINE
5
42F
100
AcDbEntity
8
0
100
AcDbLine
62
2
6
CONTINUOUS
10
234.0442940903
20
212.4088589583
11
229.3874398408
21
212.4088589583
0
SOLID
5
430
100
AcDbEntity
8
0
100
AcDbTrace
62
2
6
CONTINUOUS
10
222.2305855913
20
211.6088589583
11
226.7305855913
21
212.4088589583
12
222.2305855913
22
213.2088589583
13
222.2305855913
23
213.2088589583
0
SOLID
5
431
100
AcDbEntity
8
0
100
AcDbTrace
62
2
6
CONTINUOUS
10
236.5442940903
20
213.2088589583
11
232.0442940903
21
212.4088589583
12
236.5442940903
22
211.6088589583
13
236.5442940903
23
211.6088589583
0
ENDBLK
5
432
100
AcDbEntity
8
0
100
AcDbBlockEnd
0
BLOCK
5
433
100
AcDbEntity
8
0
100
AcDbBlockBegin
62
2
6
CONTINUOUS
2
*D42
70
65
10
0.0000000000
20
0.0000000000
3
*D42
1

0
TEXT
5
434
100
AcDbEntity
8
0
100
AcDbText
62
2
6
CONTINUOUS
10
188.6889534653
20
274.7286363535
7
TEXTSTYLE_1
40
3.5000000000
1
147,5
41
0.5833333333
72
0
100
AcDbText
0
LINE
5
435
100
AcDbEntity
8
0
100
AcDbLine
62
2
6
CONTINUOUS
10
263.3874398408
20
187.9841311557
11
263.3874398408
21
210.2019196629
0
LINE
5
436
100
AcDbEntity
8
0
100
AcDbLine
62
2
6
CONTINUOUS
10
263.3874398408
20
220.2656086329
11
263.3874398408
21
277.0536363535
0
LINE
5
437
100
AcDbEntity
8
0
100
AcDbLine
62
2
6
CONTINUOUS
10
115.8874398408
20
204.9841311557
11
115.8874398408
21
277.0536363535
0
LINE
5
438
100
AcDbEntity
8
0
100
AcDbLine
62
2
6
CONTINUOUS
10
263.3874398408
20
273.8536363535
11
189.6374398408
21
273.8536363535
0
LINE
5
439
100
AcDbEntity
8
0
100
AcDbLine
62
2
6
CONTINUOUS
10
115.8874398408
20
273.8536363535
11
189.6374398408
21
273.8536363535
0
SOLID
5
43A
100
AcDbEntity
8
0
100
AcDbTrace
62
2
6
CONTINUOUS
10
258.8874398408
20
273.0536363535
11
263.3874398408
21
273.8536363535
12
258.8874398408
22
274.6536363535
13
258.8874398408
23
274.6536363535
0
SOLID
5
43B
100
AcDbEntity
8
0
100
AcDbTrace
62
2
6
CONTINUOUS
10
120.3874398408
20
274.6536363535
11
115.8874398408
21
273.8536363535
12
120.3874398408
22
273.0536363535
13
120.3874398408
23
273.0536363535
0
ENDBLK
5
43C
100
AcDbEntity
8
0
100
AcDbBlockEnd
0
BLOCK
5
43D
100
AcDbEntity
8
0
100
AcDbBlockBegin
62
2
6
CONTINUOUS
2
*D43
70
65
10
0.0000000000
20
0.0000000000
3
*D43
1

0
TEXT
5
43E
100
AcDbEntity
8
0
100
AcDbText
62
2
6
CONTINUOUS
10
240.4900950827
20
213.2838589583
7
TEXTSTYLE_1
40
3.5000000000
1
=
41
0.4000000000
72
0
100
AcDbText
0
TEXT
5
43F
100
AcDbEntity
8
0
100
AcDbText
62
2
6
CONTINUOUS
10
248.1317617494
20
213.2838589583
7
TEXTSTYLE_1
40
3.5000000000
1
=
41
0.4000000000
72
0
100
AcDbText
0
TEXT
5
440
100
AcDbEntity
8
0
100
AcDbText
62
2
6
CONTINUOUS
10
241.8900950827
20
213.2838589583
7
TEXTSTYLE_1
40
3.5000000000
1
5,5
41
0.5944444444
72
0
100
AcDbText
0
LINE
5
441
100
AcDbEntity
8
0
100
AcDbLine
62
2
6
CONTINUOUS
10
255.3874398408
20
190.4841311557
11
255.3874398408
21
215.6088589583
0
LINE
5
442
100
AcDbEntity
8
0
100
AcDbLine
62
2
6
CONTINUOUS
10
260.8874398408
20
190.4841311557
11
260.8874398408
21
215.6088589583
0
LINE
5
443
100
AcDbEntity
8
0
100
AcDbLine
62
2
6
CONTINUOUS
10
255.3874398408
20
212.4088589583
11
240.4900950827
21
212.4088589583
0
LINE
5
444
100
AcDbEntity
8
0
100
AcDbLine
62
2
6
CONTINUOUS
10
240.4900950827
20
212.4088589583
11
258.1374398408
21
212.4088589583
0
LINE
5
445
100
AcDbEntity
8
0
100
AcDbLine
62
2
6
CONTINUOUS
10
260.8874398408
20
212.4088589583
11
262.8874398408
21
212.4088589583
0
LINE
5
446
100
AcDbEntity
8
0
100
AcDbLine
62
2
6
CONTINUOUS
10
262.8874398408
20
212.4088589583
11
258.1374398408
21
212.4088589583
0
SOLID
5
447
100
AcDbEntity
8
0
100
AcDbTrace
62
2
6
CONTINUOUS
10
250.8874398408
20
211.6088589583
11
255.3874398408
21
212.4088589583
12
250.8874398408
22
213.2088589583
13
250.8874398408
23
213.2088589583
0
SOLID
5
448
100
AcDbEntity
8
0
100
AcDbTrace
62
2
6
CONTINUOUS
10
265.3874398408
20
213.2088589583
11
260.8874398408
21
212.4088589583
12
265.3874398408
22
211.6088589583
13
265.3874398408
23
211.6088589583
0
ENDBLK
5
449
100
AcDbEntity
8
0
100
AcDbBlockEnd
0
BLOCK
5
44A
100
AcDbEntity
8
0
100
AcDbBlockBegin
62
2
6
CONTINUOUS
2
*D44
70
65
10
0.0000000000
20
0.0000000000
3
*D44
1

0
TEXT
5
44B
100
AcDbEntity
8
0
100
AcDbText
62
2
6
CONTINUOUS
10
272.7999601662
20
114.5346284903
7
TEXTSTYLE_1
40
3.5000000000
1
6
41
0.7333333333
72
0
100
AcDbText
0
TEXT
5
44C
100
AcDbEntity
8
0
100
AcDbText
62
2
6
CONTINUOUS
10
275.3666268329
20
114.5346284903
7
TEXTSTYLE_1
40
3.5000000000
1
%%c
41
1.3333333333
72
0
100
AcDbText
0
TEXT
5
44D
100
AcDbEntity
8
0
100
AcDbText
62
2
6
CONTINUOUS
10
280.0332934995
20
114.5346284903
7
TEXTSTYLE_1
40
3.5000000000
1
4,1
41
0.4833333333
72
0
100
AcDbText
0
LINE
5
44E
100
AcDbEntity
8
0
100
AcDbLine
62
2
6
CONTINUOUS
10
258.8042429906
20
137.6505630537
11
270.7999601662
21
113.6596284903
0
LINE
5
44F
100
AcDbEntity
8
0
100
AcDbLine
62
2
6
CONTINUOUS
10
270.7999601662
20
113.6596284903
11
270.8000021662
21
113.6596284903
0
LINE
5
450
100
AcDbEntity
8
0
100
AcDbLine
62
2
6
CONTINUOUS
10
270.8000021662
20
113.6596284903
11
290.3582934995
21
113.6596284903
0
SOLID
5
451
100
AcDbEntity
8
0
100
AcDbTrace
62
2
6
CONTINUOUS
10
261.5322764811
20
133.9834343030
11
258.8042429906
21
137.6505630537
12
260.1011989381
22
133.2678806251
13
260.1011989381
23
133.2678806251
0
ENDBLK
5
452
100
AcDbEntity
8
0
100
AcDbBlockEnd
0
BLOCK
5
453
100
AcDbEntity
8
0
100
AcDbBlockBegin
62
2
6
CONTINUOUS
2
*D45
70
65
10
0.0000000000
20
0.0000000000
3
*D45
1

0
TEXT
5
454
100
AcDbEntity
8
0
100
AcDbText
62
2
6
CONTINUOUS
10
150.0873299743
20
108.5004326965
7
TEXTSTYLE_1
40
3.5000000000
1
4
41
0.8000000000
72
0
100
AcDbText
0
TEXT
5
455
100
AcDbEntity
8
0
100
AcDbText
62
2
6
CONTINUOUS
10
152.8873299743
20
108.5004326965
7
TEXTSTYLE_1
40
3.5000000000
1
%%c
41
1.3333333333
72
0
100
AcDbText
0
TEXT
5
456
100
AcDbEntity
8
0
100
AcDbText
62
2
6
CONTINUOUS
10
157.5539966410
20
108.5004326965
7
TEXTSTYLE_1
40
3.5000000000
1
4,1
41
0.4833333333
72
0
100
AcDbText
0
LINE
5
457
100
AcDbEntity
8
0
100
AcDbLine
62
2
6
CONTINUOUS
10
182.0346656644
20
127.4438383174
11
164.6289966410
21
107.6254326965
0
LINE
5
458
100
AcDbEntity
8
0
100
AcDbLine
62
2
6
CONTINUOUS
10
164.6289966410
20
107.6254326965
11
164.6289546410
21
107.6254326965
0
LINE
5
459
100
AcDbEntity
8
0
100
AcDbLine
62
2
6
CONTINUOUS
10
164.6289546410
20
107.6254326965
11
144.8373299743
21
107.6254326965
0
SOLID
5
45A
100
AcDbEntity
8
0
100
AcDbTrace
62
2
6
CONTINUOUS
10
179.6662512628
20
123.5347958231
11
182.0346656644
21
127.4438383174
12
178.4640714866
22
124.5906195706
13
178.4640714866
23
124.5906195706
0
ENDBLK
5
45B
100
AcDbEntity
8
0
100
AcDbBlockEnd
0
BLOCK
5
45C
100
AcDbEntity
8
0
100
AcDbBlockBegin
62
2
6
CONTINUOUS
2
*D46
70
65
10
0.0000000000
20
0.0000000000
3
*D46
1

0
TEXT
5
45D
100
AcDbEntity
8
0
100
AcDbText
62
2
6
CONTINUOUS
10
155.8971274941
20
99.4240667053
7
TEXTSTYLE_1
40
3.5000000000
1
2
41
0.7333333333
72
0
100
AcDbText
0
TEXT
5
45E
100
AcDbEntity
8
0
100
AcDbText
62
2
6
CONTINUOUS
10
158.4637941608
20
99.4240667053
7
TEXTSTYLE_1
40
3.5000000000
1
%%c
41
1.3333333333
72
0
100
AcDbText
0
TEXT
5
45F
100
AcDbEntity
8
0
100
AcDbText
62
2
6
CONTINUOUS
10
165.6971274941
20
99.4240667053
7
TEXTSTYLE_1
40
3.5000000000
1
H8
41
0.7666666667
72
0
100
AcDbText
0
TEXT
5
460
100
AcDbEntity
8
0
100
AcDbText
62
2
6
CONTINUOUS
10
163.1304608274
20
99.4240667053
7
TEXTSTYLE_1
40
3.5000000000
1
3
41
0.7333333333
72
0
100
AcDbText
0
LINE
5
461
100
AcDbEntity
8
0
100
AcDbLine
62
2
6
CONTINUOUS
10
187.7128851149
20
127.6443640410
11
173.0637941608
21
98.5490667053
0
LINE
5
462
100
AcDbEntity
8
0
100
AcDbLine
62
2
6
CONTINUOUS
10
173.0637941608
20
98.5490667053
11
173.0637521608
21
98.5490667053
0
LINE
5
463
100
AcDbEntity
8
0
100
AcDbLine
62
2
6
CONTINUOUS
10
173.0637521608
20
98.5490667053
11
150.6471274941
21
98.5490667053
0
SOLID
5
464
100
AcDbEntity
8
0
100
AcDbTrace
62
2
6
CONTINUOUS
10
186.4037633982
20
123.2653001763
11
187.7128851149
21
127.6443640410
12
184.9746784758
22
123.9848252173
13
184.9746784758
23
123.9848252173
0
ENDBLK
5
465
100
AcDbEntity
8
0
100
AcDbBlockEnd
0
BLOCK
5
466
100
AcDbEntity
8
0
100
AcDbBlockBegin
62
2
6
CONTINUOUS
2
*D47
70
65
10
0.0000000000
20
0.0000000000
3
*D47
1

0
TEXT
5
467
100
AcDbEntity
8
0
100
AcDbText
62
2
6
CONTINUOUS
10
189.0229728240
20
167.4953584798
7
TEXTSTYLE_1
40
3.5000000000
1
2,5
50
90.0000000000
41
0.5944444444
72
0
100
AcDbText
0
LINE
5
468
100
AcDbEntity
8
0
100
AcDbLine
62
2
6
CONTINUOUS
10
180.3491010338
20
158.9841311557
11
193.0979728240
21
158.9841311557
0
LINE
5
469
100
AcDbEntity
8
0
100
AcDbLine
62
2
6
CONTINUOUS
10
188.0611216662
20
161.4841311557
11
193.0979728240
21
161.4841311557
0
LINE
5
46A
100
AcDbEntity
8
0
100
AcDbLine
62
2
6
CONTINUOUS
10
189.8979728240
20
158.9841311557
11
189.8979728240
21
156.9841311557
0
LINE
5
46B
100
AcDbEntity
8
0
100
AcDbLine
62
2
6
CONTINUOUS
10
189.8979728240
20
156.9841311557
11
189.8979728240
21
160.2341311557
0
LINE
5
46C
100
AcDbEntity
8
0
100
AcDbLine
62
2
6
CONTINUOUS
10
189.8979728240
20
161.4841311557
11
189.8979728240
21
173.7370251464
0
LINE
5
46D
100
AcDbEntity
8
0
100
AcDbLine
62
2
6
CONTINUOUS
10
189.8979728240
20
173.7370251464
11
189.8979728240
21
160.2341311557
0
SOLID
5
46E
100
AcDbEntity
8
0
100
AcDbTrace
62
2
6
CONTINUOUS
10
190.6979728240
20
154.4841311557
11
189.8979728240
21
158.9841311557
12
189.0979728240
22
154.4841311557
13
189.0979728240
23
154.4841311557
0
SOLID
5
46F
100
AcDbEntity
8
0
100
AcDbTrace
62
2
6
CONTINUOUS
10
189.0979728240
20
165.9841311557
11
189.8979728240
21
161.4841311557
12
190.6979728240
22
165.9841311557
13
190.6979728240
23
165.9841311557
0
ENDBLK
5
470
100
AcDbEntity
8
0
100
AcDbBlockEnd
0
BLOCK
5
471
100
AcDbEntity
8
0
100
AcDbBlockBegin
62
2
6
CONTINUOUS
2
*D48
70
65
10
0.0000000000
20
0.0000000000
3
*D48
1

0
TEXT
5
472
100
AcDbEntity
8
0
100
AcDbText
62
2
6
CONTINUOUS
10
189.0229728240
20
141.8631252065
7
TEXTSTYLE_1
40
3.5000000000
1
23,5
50
90.0000000000
41
0.6291666667
72
0
100
AcDbText
0
LINE
5
473
100
AcDbEntity
8
0
100
AcDbLine
62
2
6
CONTINUOUS
10
180.3491010338
20
135.4841311557
11
193.0979728240
21
135.4841311557
0
LINE
5
474
100
AcDbEntity
8
0
100
AcDbLine
62
2
6
CONTINUOUS
10
180.3491010338
20
158.9841311557
11
193.0979728240
21
158.9841311557
0
LINE
5
475
100
AcDbEntity
8
0
100
AcDbLine
62
2
6
CONTINUOUS
10
189.8979728240
20
135.4841311557
11
189.8979728240
21
147.2341311557
0
LINE
5
476
100
AcDbEntity
8
0
100
AcDbLine
62
2
6
CONTINUOUS
10
189.8979728240
20
158.9841311557
11
189.8979728240
21
147.2341311557
0
SOLID
5
477
100
AcDbEntity
8
0
100
AcDbTrace
62
2
6
CONTINUOUS
10
189.0979728240
20
139.9841311557
11
189.8979728240
21
135.4841311557
12
190.6979728240
22
139.9841311557
13
190.6979728240
23
139.9841311557
0
SOLID
5
478
100
AcDbEntity
8
0
100
AcDbTrace
62
2
6
CONTINUOUS
10
190.6979728240
20
154.4841311557
11
189.8979728240
21
158.9841311557
12
189.0979728240
22
154.4841311557
13
189.0979728240
23
154.4841311557
0
ENDBLK
5
479
100
AcDbEntity
8
0
100
AcDbBlockEnd
0
BLOCK
5
47A
100
AcDbEntity
8
0
100
AcDbBlockBegin
62
2
6
CONTINUOUS
2
*D49
70
65
10
0.0000000000
20
0.0000000000
3
*D49
1

0
TEXT
5
47B
100
AcDbEntity
8
0
100
AcDbText
62
2
6
CONTINUOUS
10
180.9078629379
20
143.8510295854
7
TEXTSTYLE_1
40
3.5000000000
1
=
50
90.0000000000
41
0.4000000000
72
0
100
AcDbText
0
TEXT
5
47C
100
AcDbEntity
8
0
100
AcDbText
62
2
6
CONTINUOUS
10
180.9078629379
20
147.8176962521
7
TEXTSTYLE_1
40
3.5000000000
1
=
50
90.0000000000
41
0.4000000000
72
0
100
AcDbText
0
TEXT
5
47D
100
AcDbEntity
8
0
100
AcDbText
62
2
6
CONTINUOUS
10
180.9078629379
20
145.2510295854
7
TEXTSTYLE_1
40
3.5000000000
1
6
50
90.0000000000
41
0.7333333333
72
0
100
AcDbText
0
LINE
5
47E
100
AcDbEntity
8
0
100
AcDbLine
62
2
6
CONTINUOUS
10
175.3490010338
20
161.9841311557
11
184.9828629379
21
161.9841311557
0
LINE
5
47F
100
AcDbEntity
8
0
100
AcDbLine
62
2
6
CONTINUOUS
10
175.3490010338
20
155.9841311557
11
184.9828629379
21
155.9841311557
0
LINE
5
480
100
AcDbEntity
8
0
100
AcDbLine
62
2
6
CONTINUOUS
10
181.7828629379
20
161.9841311557
11
181.7828629379
21
163.9841311557
0
LINE
5
481
100
AcDbEntity
8
0
100
AcDbLine
62
2
6
CONTINUOUS
10
181.7828629379
20
163.9841311557
11
181.7828629379
21
158.9841311557
0
LINE
5
482
100
AcDbEntity
8
0
100
AcDbLine
62
2
6
CONTINUOUS
10
181.7828629379
20
155.9841311557
11
181.7828629379
21
143.8510295854
0
LINE
5
483
100
AcDbEntity
8
0
100
AcDbLine
62
2
6
CONTINUOUS
10
181.7828629379
20
143.8510295854
11
181.7828629379
21
158.9841311557
0
SOLID
5
484
100
AcDbEntity
8
0
100
AcDbTrace
62
2
6
CONTINUOUS
10
180.9828629379
20
166.4841311557
11
181.7828629379
21
161.9841311557
12
182.5828629379
22
166.4841311557
13
182.5828629379
23
166.4841311557
0
SOLID
5
485
100
AcDbEntity
8
0
100
AcDbTrace
62
2
6
CONTINUOUS
10
182.5828629379
20
151.4841311557
11
181.7828629379
21
155.9841311557
12
180.9828629379
22
151.4841311557
13
180.9828629379
23
151.4841311557
0
ENDBLK
5
486
100
AcDbEntity
8
0
100
AcDbBlockEnd
0
BLOCK
5
487
100
AcDbEntity
8
0
100
AcDbBlockBegin
62
2
6
CONTINUOUS
2
*D50
70
65
10
0.0000000000
20
0.0000000000
3
*D50
1

0
TEXT
5
488
100
AcDbEntity
8
0
100
AcDbText
62
2
6
CONTINUOUS
10
99.0554691179
20
153.0686547019
7
TEXTSTYLE_1
40
3.5000000000
1
16
50
90.0000000000
41
0.5333333333
72
0
100
AcDbText
0
LINE
5
489
100
AcDbEntity
8
0
100
AcDbLine
62
2
6
CONTINUOUS
10
144.8490010338
20
163.2341311557
11
96.7304691179
21
163.2341311557
0
LINE
5
48A
100
AcDbEntity
8
0
100
AcDbLine
62
2
6
CONTINUOUS
10
101.0623239746
20
147.2341311557
11
96.7304691179
21
147.2341311557
0
LINE
5
48B
100
AcDbEntity
8
0
100
AcDbLine
62
2
6
CONTINUOUS
10
99.9304691179
20
163.2341311557
11
99.9304691179
21
155.2341311557
0
LINE
5
48C
100
AcDbEntity
8
0
100
AcDbLine
62
2
6
CONTINUOUS
10
99.9304691179
20
147.2341311557
11
99.9304691179
21
155.2341311557
0
SOLID
5
48D
100
AcDbEntity
8
0
100
AcDbTrace
62
2
6
CONTINUOUS
10
100.7304691179
20
158.7341311557
11
99.9304691179
21
163.2341311557
12
99.1304691179
22
158.7341311557
13
99.1304691179
23
158.7341311557
0
SOLID
5
48E
100
AcDbEntity
8
0
100
AcDbTrace
62
2
6
CONTINUOUS
10
99.1304691179
20
151.7341311557
11
99.9304691179
21
147.2341311557
12
100.7304691179
22
151.7341311557
13
100.7304691179
23
151.7341311557
0
ENDBLK
5
48F
100
AcDbEntity
8
0
100
AcDbBlockEnd
0
BLOCK
5
490
100
AcDbEntity
8
0
100
AcDbBlockBegin
62
2
6
CONTINUOUS
2
*D51
70
65
10
0.0000000000
20
0.0000000000
3
*D51
1

0
TEXT
5
491
100
AcDbEntity
8
0
100
AcDbText
62
2
6
CONTINUOUS
10
99.0554691179
20
137.2988315004
7
TEXTSTYLE_1
40
3.5000000000
1
16
50
90.0000000000
41
0.5333333333
72
0
100
AcDbText
0
LINE
5
492
100
AcDbEntity
8
0
100
AcDbLine
62
2
6
CONTINUOUS
10
144.8490010338
20
131.2341311557
11
96.7304691179
21
131.2341311557
0
LINE
5
493
100
AcDbEntity
8
0
100
AcDbLine
62
2
6
CONTINUOUS
10
144.8490010338
20
147.2341311557
11
111.8313522421
21
147.2341311557
0
LINE
5
494
100
AcDbEntity
8
0
100
AcDbLine
62
2
6
CONTINUOUS
10
103.2464220555
20
147.2341311557
11
96.7304691179
21
147.2341311557
0
LINE
5
495
100
AcDbEntity
8
0
100
AcDbLine
62
2
6
CONTINUOUS
10
99.9304691179
20
131.2341311557
11
99.9304691179
21
139.2341311557
0
LINE
5
496
100
AcDbEntity
8
0
100
AcDbLine
62
2
6
CONTINUOUS
10
99.9304691179
20
147.2341311557
11
99.9304691179
21
139.2341311557
0
SOLID
5
497
100
AcDbEntity
8
0
100
AcDbTrace
62
2
6
CONTINUOUS
10
99.1304691179
20
135.7341311557
11
99.9304691179
21
131.2341311557
12
100.7304691179
22
135.7341311557
13
100.7304691179
23
135.7341311557
0
SOLID
5
498
100
AcDbEntity
8
0
100
AcDbTrace
62
2
6
CONTINUOUS
10
100.7304691179
20
142.7341311557
11
99.9304691179
21
147.2341311557
12
99.1304691179
22
142.7341311557
13
99.1304691179
23
142.7341311557
0
ENDBLK
5
499
100
AcDbEntity
8
0
100
AcDbBlockEnd
0
BLOCK
5
49A
100
AcDbEntity
8
0
100
AcDbBlockBegin
62
2
6
CONTINUOUS
2
*D52
70
65
10
0.0000000000
20
0.0000000000
3
*D52
1

0
TEXT
5
49B
100
AcDbEntity
8
0
100
AcDbText
62
2
6
CONTINUOUS
10
108.5927385151
20
133.3498821751
7
TEXTSTYLE_1
40
3.5000000000
1
=
50
90.0000000000
41
0.4000000000
72
0
100
AcDbText
0
TEXT
5
49C
100
AcDbEntity
8
0
100
AcDbText
62
2
6
CONTINUOUS
10
108.5927385151
20
137.3165488418
7
TEXTSTYLE_1
40
3.5000000000
1
=
50
90.0000000000
41
0.4000000000
72
0
100
AcDbText
0
TEXT
5
49D
100
AcDbEntity
8
0
100
AcDbText
62
2
6
CONTINUOUS
10
108.5927385151
20
134.7498821751
7
TEXTSTYLE_1
40
3.5000000000
1
6
50
90.0000000000
41
0.7333333333
72
0
100
AcDbText
0
LINE
5
49E
100
AcDbEntity
8
0
100
AcDbLine
62
2
6
CONTINUOUS
10
144.8490010338
20
150.2341311557
11
106.2677385151
21
150.2341311557
0
LINE
5
49F
100
AcDbEntity
8
0
100
AcDbLine
62
2
6
CONTINUOUS
10
144.8490010338
20
144.2341311557
11
106.2677385151
21
144.2341311557
0
LINE
5
4A0
100
AcDbEntity
8
0
100
AcDbLine
62
2
6
CONTINUOUS
10
109.4677385151
20
150.2341311557
11
109.4677385151
21
152.2341311557
0
LINE
5
4A1
100
AcDbEntity
8
0
100
AcDbLine
62
2
6
CONTINUOUS
10
109.4677385151
20
152.2341311557
11
109.4677385151
21
147.2341311557
0
LINE
5
4A2
100
AcDbEntity
8
0
100
AcDbLine
62
2
6
CONTINUOUS
10
109.4677385151
20
144.2341311557
11
109.4677385151
21
133.3498821751
0
LINE
5
4A3
100
AcDbEntity
8
0
100
AcDbLine
62
2
6
CONTINUOUS
10
109.4677385151
20
133.3498821751
11
109.4677385151
21
147.2341311557
0
SOLID
5
4A4
100
AcDbEntity
8
0
100
AcDbTrace
62
2
6
CONTINUOUS
10
108.6677385151
20
154.7341311557
11
109.4677385151
21
150.2341311557
12
110.2677385151
22
154.7341311557
13
110.2677385151
23
154.7341311557
0
SOLID
5
4A5
100
AcDbEntity
8
0
100
AcDbTrace
62
2
6
CONTINUOUS
10
110.2677385151
20
139.7341311557
11
109.4677385151
21
144.2341311557
12
108.6677385151
22
139.7341311557
13
108.6677385151
23
139.7341311557
0
ENDBLK
5
4A6
100
AcDbEntity
8
0
100
AcDbBlockEnd
0
BLOCK
5
4A7
100
AcDbEntity
8
0
100
AcDbBlockBegin
62
2
6
CONTINUOUS
2
*D53
70
65
10
0.0000000000
20
0.0000000000
3
*D53
1

0
TEXT
5
4A8
100
AcDbEntity
8
0
100
AcDbText
62
2
6
CONTINUOUS
10
84.5770801503
20
223.3288223085
7
TEXTSTYLE_1
40
3.5000000000
1
2
41
0.7333333333
72
0
100
AcDbText
0
TEXT
5
4A9
100
AcDbEntity
8
0
100
AcDbText
62
2
6
CONTINUOUS
10
87.1437468170
20
223.3288223085
7
TEXTSTYLE_1
40
3.5000000000
1
%%c
41
1.3333333333
72
0
100
AcDbText
0
TEXT
5
4AA
100
AcDbEntity
8
0
100
AcDbText
62
2
6
CONTINUOUS
10
91.8104134836
20
223.3288223085
7
TEXTSTYLE_1
40
3.5000000000
1
3,2
41
0.5944444444
72
0
100
AcDbText
0
LINE
5
4AB
100
AcDbEntity
8
0
100
AcDbLine
62
2
6
CONTINUOUS
10
119.3770711471
20
198.7247580547
11
100.0520801503
21
222.4538223085
0
LINE
5
4AC
100
AcDbEntity
8
0
100
AcDbLine
62
2
6
CONTINUOUS
10
100.0520801503
20
222.4538223085
11
100.0520381503
21
222.4538223085
0
LINE
5
4AD
100
AcDbEntity
8
0
100
AcDbLine
62
2
6
CONTINUOUS
10
100.0520381503
20
222.4538223085
11
79.3270801503
21
222.4538223085
0
SOLID
5
4AE
100
AcDbEntity
8
0
100
AcDbTrace
62
2
6
CONTINUOUS
10
115.9150957463
20
201.7088368614
11
119.3770711471
21
198.7247580547
12
117.1557226454
22
202.7192055552
13
117.1557226454
23
202.7192055552
0
ENDBLK
5
4AF
100
AcDbEntity
8
0
100
AcDbBlockEnd
0
BLOCK
5
4B0
100
AcDbEntity
8
0
100
AcDbBlockBegin
62
2
6
CONTINUOUS
2
*D54
70
65
10
0.0000000000
20
0.0000000000
3
*D54
1

0
TEXT
5
4B1
100
AcDbEntity
8
0
100
AcDbText
62
2
6
CONTINUOUS
10
82.5850970019
20
214.7155520923
7
TEXTSTYLE_1
40
3.5000000000
1
2
41
0.7333333333
72
0
100
AcDbText
0
TEXT
5
4B2
100
AcDbEntity
8
0
100
AcDbText
62
2
6
CONTINUOUS
10
85.1517636686
20
214.7155520923
7
TEXTSTYLE_1
40
3.5000000000
1
%%c
41
1.3333333333
72
0
100
AcDbText
0
TEXT
5
4B3
100
AcDbEntity
8
0
100
AcDbText
62
2
6
CONTINUOUS
10
92.3850970019
20
214.7155520923
7
TEXTSTYLE_1
40
3.5000000000
1
H8
41
0.7666666667
72
0
100
AcDbText
0
TEXT
5
4B4
100
AcDbEntity
8
0
100
AcDbText
62
2
6
CONTINUOUS
10
89.8184303352
20
214.7155520923
7
TEXTSTYLE_1
40
3.5000000000
1
3
41
0.7333333333
72
0
100
AcDbText
0
LINE
5
4B5
100
AcDbEntity
8
0
100
AcDbLine
62
2
6
CONTINUOUS
10
119.4178038487
20
190.6285987362
11
99.7517636686
21
213.8405520923
0
LINE
5
4B6
100
AcDbEntity
8
0
100
AcDbLine
62
2
6
CONTINUOUS
10
99.7517636686
20
213.8405520923
11
99.7517216686
21
213.8405520923
0
LINE
5
4B7
100
AcDbEntity
8
0
100
AcDbLine
62
2
6
CONTINUOUS
10
99.7517216686
20
213.8405520923
11
77.3350970019
21
213.8405520923
0
SOLID
5
4B8
100
AcDbEntity
8
0
100
AcDbTrace
62
2
6
CONTINUOUS
10
115.8985131626
20
193.5448622817
11
119.4178038487
21
190.6285987362
12
117.1192785818
22
194.5791406734
13
117.1192785818
23
194.5791406734
0
ENDBLK
5
4B9
100
AcDbEntity
8
0
100
AcDbBlockEnd
0
BLOCK
5
4BA
100
AcDbEntity
8
0
100
AcDbBlockBegin
62
2
6
CONTINUOUS
2
*D55
70
65
10
0.0000000000
20
0.0000000000
3
*D55
1

0
TEXT
5
4BB
100
AcDbEntity
8
0
100
AcDbText
62
2
6
CONTINUOUS
10
404.9079669763
20
218.7181995165
7
TEXTSTYLE_1
40
3.5000000000
1
2,5
41
0.5944444444
72
0
100
AcDbText
0
LINE
5
4BC
100
AcDbEntity
8
0
100
AcDbLine
62
2
6
CONTINUOUS
10
395.6976119066
20
204.9841311557
11
395.6976119066
21
221.0431995165
0
LINE
5
4BD
100
AcDbEntity
8
0
100
AcDbLine
62
2
6
CONTINUOUS
10
398.1976119066
20
204.9841311557
11
398.1976119066
21
221.0431995165
0
LINE
5
4BE
100
AcDbEntity
8
0
100
AcDbLine
62
2
6
CONTINUOUS
10
395.6976119066
20
217.8431995165
11
393.6976119066
21
217.8431995165
0
LINE
5
4BF
100
AcDbEntity
8
0
100
AcDbLine
62
2
6
CONTINUOUS
10
393.6976119066
20
217.8431995165
11
396.9476119066
21
217.8431995165
0
LINE
5
4C0
100
AcDbEntity
8
0
100
AcDbLine
62
2
6
CONTINUOUS
10
398.1976119066
20
217.8431995165
11
411.1496336429
21
217.8431995165
0
LINE
5
4C1
100
AcDbEntity
8
0
100
AcDbLine
62
2
6
CONTINUOUS
10
411.1496336429
20
217.8431995165
11
396.9476119066
21
217.8431995165
0
SOLID
5
4C2
100
AcDbEntity
8
0
100
AcDbTrace
62
2
6
CONTINUOUS
10
391.1976119066
20
217.0431995165
11
395.6976119066
21
217.8431995165
12
391.1976119066
22
218.6431995165
13
391.1976119066
23
218.6431995165
0
SOLID
5
4C3
100
AcDbEntity
8
0
100
AcDbTrace
62
2
6
CONTINUOUS
10
402.6976119066
20
218.6431995165
11
398.1976119066
21
217.8431995165
12
402.6976119066
22
217.0431995165
13
402.6976119066
23
217.0431995165
0
ENDBLK
5
4C4
100
AcDbEntity
8
0
100
AcDbBlockEnd
0
BLOCK
5
4C5
100
AcDbEntity
8
0
100
AcDbBlockBegin
62
2
6
CONTINUOUS
2
*D56
70
65
10
0.0000000000
20
0.0000000000
3
*D56
1

0
TEXT
5
4C6
100
AcDbEntity
8
0
100
AcDbText
62
2
6
CONTINUOUS
10
163.7179406225
20
169.8332806242
7
TEXTSTYLE_1
40
3.5000000000
1
R
50
40.5422840064
41
0.7666666667
72
0
100
AcDbText
0
TEXT
5
4C7
100
AcDbEntity
8
0
100
AcDbText
62
2
6
CONTINUOUS
10
165.7570766478
20
171.5774715679
7
TEXTSTYLE_1
40
3.5000000000
1
3
50
40.5422840064
41
0.7333333333
72
0
100
AcDbText
0
LINE
5
4C8
100
AcDbEntity
8
0
100
AcDbLine
62
2
6
CONTINUOUS
10
159.6287804410
20
165.1841582977
11
168.2763125015
21
172.5808924623
0
SOLID
5
4C9
100
AcDbEntity
8
0
100
AcDbTrace
62
2
6
CONTINUOUS
10
162.5284423140
20
168.7171401859
11
159.6287804410
21
165.1841582977
12
163.5684567897
22
167.5012578354
13
163.5684567897
23
167.5012578354
0
ENDBLK
5
4CA
100
AcDbEntity
8
0
100
AcDbBlockEnd
0
BLOCK
5
4CB
100
AcDbEntity
8
0
100
AcDbBlockBegin
62
2
6
CONTINUOUS
2
*D57
70
65
10
0.0000000000
20
0.0000000000
3
*D57
1

0
TEXT
5
4CC
100
AcDbEntity
8
0
100
AcDbText
62
2
6
CONTINUOUS
10
160.7706041755
20
145.3995485227
7
TEXTSTYLE_1
40
3.5000000000
1
R
50
-43.7914729977
41
0.7666666667
72
0
100
AcDbText
0
TEXT
5
4CD
100
AcDbEntity
8
0
100
AcDbText
62
2
6
CONTINUOUS
10
162.7076038368
20
143.5425859248
7
TEXTSTYLE_1
40
3.5000000000
1
3
50
-43.7914729977
41
0.7333333333
72
0
100
AcDbText
0
LINE
5
4CE
100
AcDbEntity
8
0
100
AcDbLine
62
2
6
CONTINUOUS
10
167.6834113504
20
137.5602384080
11
160.1650728936
21
144.7679181984
0
SOLID
5
4CF
100
AcDbEntity
8
0
100
AcDbTrace
62
2
6
CONTINUOUS
10
163.8813982246
20
140.0969087042
11
167.6834113504
21
137.5602384080
12
164.9886554259
22
141.2518898687
13
164.9886554259
23
141.2518898687
0
ENDBLK
5
4D0
100
AcDbEntity
8
0
100
AcDbBlockEnd
0
BLOCK
5
4D1
100
AcDbEntity
8
0
100
AcDbBlockBegin
62
2
6
CONTINUOUS
2
*D58
70
65
10
0.0000000000
20
0.0000000000
3
*D58
1

0
TEXT
5
4D2
100
AcDbEntity
8
0
100
AcDbText
62
2
6
CONTINUOUS
10
200.8903927047
20
149.0757463970
7
TEXTSTYLE_1
40
3.5000000000
1
R
50
37.2641118193
41
0.7666666667
72
0
100
AcDbText
0
TEXT
5
4D3
100
AcDbEntity
8
0
100
AcDbText
62
2
6
CONTINUOUS
10
203.0259313086
20
150.7004779591
7
TEXTSTYLE_1
40
3.5000000000
1
4
50
37.2641118193
41
0.8000000000
72
0
100
AcDbText
0
LINE
5
4D4
100
AcDbEntity
8
0
100
AcDbLine
62
2
6
CONTINUOUS
10
210.2040282573
20
155.0621710631
11
201.4201964749
21
148.3793751131
0
SOLID
5
4D5
100
AcDbEntity
8
0
100
AcDbTrace
62
2
6
CONTINUOUS
10
207.1070822445
20
151.7007836422
11
210.2040282573
21
155.0621710631
12
206.1382982074
22
152.9741482756
13
206.1382982074
23
152.9741482756
0
ENDBLK
5
4D6
100
AcDbEntity
8
0
100
AcDbBlockEnd
0
BLOCK
5
4D7
100
AcDbEntity
8
0
100
AcDbBlockBegin
62
2
6
CONTINUOUS
2
N-CAR_BL2
70
64
10
0.0000000000
20
0.0000000000
3
N-CAR_BL2
1

0
TEXT
5
4D8
100
AcDbEntity
8
0
100
AcDbText
62
2
6
CONTINUOUS
10
297.2060623537
20
38.8281747997
7
STANDARD
40
2.9999987760
1
3,2
41
0.5000000000
72
0
100
AcDbText
0
TEXT
5
4D9
100
AcDbEntity
8
0
100
AcDbText
62
2
6
CONTINUOUS
10
312.2306602893
20
38.8061287487
7
STANDARD
40
2.9999987760
1
.
41
0.5000000000
72
0
100
AcDbText
0
TEXT
5
4DA
100
AcDbEntity
8
0
100
AcDbText
62
2
6
CONTINUOUS
10
322.2287197227
20
38.7888302447
7
STANDARD
40
2.9999987760
1
.
41
0.5000000000
72
0
100
AcDbText
0
TEXT
5
4DB
100
AcDbEntity
8
0
100
AcDbText
62
2
6
CONTINUOUS
10
332.2771308062
20
38.8146731977
7
STANDARD
40
2.9999987760
1
.
41
0.5000000000
72
0
100
AcDbText
0
LINE
5
4DC
100
AcDbEntity
8
0
100
AcDbLine
62
7
6
CONTINUOUS
10
342.3522705097
20
41.6713698957
11
344.3599552872
21
41.6713698957
0
LINE
5
4DD
100
AcDbEntity
8
0
100
AcDbLine
62
7
6
CONTINUOUS
10
344.3599552872
20
41.6713698957
11
344.3599552872
21
31.6713739757
0
LINE
5
4DE
100
AcDbEntity
8
0
100
AcDbLine
62
7
6
CONTINUOUS
10
342.3522705097
20
31.6713739757
11
344.3599552872
21
31.6713739757
0
LINE
5
4DF
100
AcDbEntity
8
0
100
AcDbLine
62
7
6
CONTINUOUS
10
341.9445410042
20
39.8366888374
11
338.9105602669
21
39.8366888374
0
LINE
5
4E0
100
AcDbEntity
8
0
100
AcDbLine
62
7
6
CONTINUOUS
10
338.9105602669
20
39.8366888374
11
336.5446793411
21
32.7390460600
0
LINE
5
4E1
100
AcDbEntity
8
0
100
AcDbLine
62
7
6
CONTINUOUS
10
336.5446793411
20
32.7390460600
11
334.2026591229
21
37.8489083543
0
LINE
5
4E2
100
AcDbEntity
8
0
100
AcDbLine
62
7
6
CONTINUOUS
10
321.9445491642
20
39.8366888374
11
318.9105684269
21
39.8366888374
0
LINE
5
4E3
100
AcDbEntity
8
0
100
AcDbLine
62
7
6
CONTINUOUS
10
318.9105684269
20
39.8366888374
11
316.5446875011
21
32.7390460600
0
LINE
5
4E4
100
AcDbEntity
8
0
100
AcDbLine
62
7
6
CONTINUOUS
10
316.5446875011
20
32.7390460600
11
314.2026672829
21
37.8489083543
0
LINE
5
4E5
100
AcDbEntity
8
0
100
AcDbLine
62
7
6
CONTINUOUS
10
331.9445450842
20
39.8366888374
11
328.9105643469
21
39.8366888374
0
LINE
5
4E6
100
AcDbEntity
8
0
100
AcDbLine
62
7
6
CONTINUOUS
10
328.9105643469
20
39.8366888374
11
326.5446834211
21
32.7390460600
0
LINE
5
4E7
100
AcDbEntity
8
0
100
AcDbLine
62
7
6
CONTINUOUS
10
326.5446834211
20
32.7390460600
11
324.2026632029
21
37.8489083543
0
LINE
5
4E8
100
AcDbEntity
8
0
100
AcDbLine
62
7
6
CONTINUOUS
10
309.3599695672
20
41.6713698957
11
311.7556371014
21
41.6713698957
0
LINE
5
4E9
100
AcDbEntity
8
0
100
AcDbLine
62
7
6
CONTINUOUS
10
309.3599695672
20
41.6713698957
11
309.3599695672
21
31.6713739757
0
LINE
5
4EA
100
AcDbEntity
8
0
100
AcDbLine
62
7
6
CONTINUOUS
10
309.3599695672
20
31.6713739757
11
311.7556371014
21
31.6713739757
0
LINE
5
4EB
100
AcDbEntity
8
0
100
AcDbLine
62
7
6
CONTINUOUS
10
306.9445552842
20
39.8366888374
11
303.9105745469
21
39.8366888374
0
LINE
5
4EC
100
AcDbEntity
8
0
100
AcDbLine
62
7
6
CONTINUOUS
10
303.9105745469
20
39.8366888374
11
301.5446936211
21
32.7390460600
0
LINE
5
4ED
100
AcDbEntity
8
0
100
AcDbLine
62
7
6
CONTINUOUS
10
301.5446936211
20
32.7390460600
11
299.2026734028
21
37.8489083543
0
ARC
5
4EE
100
AcDbEntity
8
0
100
AcDbCircle
62
7
6
CONTINUOUS
10
294.0125118954
20
37.5480072896
40
2.4999989800
100
AcDbArc
50
177.5591686478
51
2.4408313522
0
ARC
5
4EF
100
AcDbEntity
8
0
100
AcDbCircle
62
7
6
CONTINUOUS
10
289.0125139354
20
37.5480072896
40
2.4999989800
100
AcDbArc
50
0.0000000000
51
177.5591686478
0
ENDBLK
5
4F0
100
AcDbEntity
8
0
100
AcDbBlockEnd
0
ENDSEC
0
SECTION
2
ENTITIES
0
TEXT
5
4F1
100
AcDbEntity
8
0
100
AcDbText
62
2
6
CONTINUOUS
10
435.6059290093
20
8.7539544361
7
STANDARD
40
2.0000000000
1
22/96a
41
0.8000000000
72
0
100
AcDbText
0
INSERT
5
4F2
100
AcDbEntity
8
0
100
AcDbBlockReference
62
2
6
CONTINUOUS
2
N-DES_BL0
10
0.0000000000
20
0.0000000000
0
INSERT
5
4F3
100
AcDbEntity
8
0
100
AcDbBlockReference
62
2
6
CONTINUOUS
2
N-CART_BL1
10
0.0000000000
20
0.0000000000
0
DIMENSION
5
4F4
100
AcDbEntity
8
0
100
AcDbDimension
62
2
6
CONTINUOUS
2
*D0
10
56.4231507665
20
119.4841311557
11
53.7981507665
21
161.4514367354
70
160
1
=<>=
3
DIMSTYLE_1
100
AcDbAlignedDimension
13
114.3874398408
23
203.4841311557
14
114.3874398408
24
119.4841311557
50
270.000000
100
AcDbRotatedDimension
0
DIMENSION
5
4F5
100
AcDbEntity
8
0
100
AcDbDimension
62
2
6
CONTINUOUS
2
*D1
10
73.1775905913
20
189.4841311557
11
70.5525905913
21
161.7930654561
70
160
1
=<>=
3
DIMSTYLE_1
100
AcDbAlignedDimension
13
113.8873398408
23
133.4841311557
14
113.8873398408
24
189.4841311557
50
90.000000
100
AcDbRotatedDimension
0
DIMENSION
5
4F6
100
AcDbEntity
8
0
100
AcDbDimension
62
2
6
CONTINUOUS
2
*D2
10
64.8384387679
20
125.4841311557
11
62.2134387679
21
161.4304936377
70
160
1
=<>=
3
DIMSTYLE_1
100
AcDbAlignedDimension
13
112.2874398408
23
197.4841311557
14
112.2874398408
24
125.4841311557
50
270.000000
100
AcDbRotatedDimension
0
DIMENSION
5
4F7
100
AcDbEntity
8
0
100
AcDbDimension
62
2
6
CONTINUOUS
2
*D3
10
314.2906328498
20
139.4841311557
11
311.6656328498
21
161.3400264692
70
160
1
=<>=
3
DIMSTYLE_1
100
AcDbAlignedDimension
13
266.4374398408
23
183.4841311557
14
266.4374398408
24
139.4841311557
50
270.000000
100
AcDbRotatedDimension
0
DIMENSION
5
4F8
100
AcDbEntity
8
0
100
AcDbDimension
62
2
6
CONTINUOUS
2
*D4
10
322.0262754679
20
136.4841311557
11
319.4012754679
21
161.2325869884
70
160
1
=<>=
3
DIMSTYLE_1
100
AcDbAlignedDimension
13
254.3874398408
23
186.4841311557
14
254.3874398408
24
136.4841311557
50
270.000000
100
AcDbRotatedDimension
0
DIMENSION
5
4F9
100
AcDbEntity
8
0
100
AcDbDimension
62
2
6
CONTINUOUS
2
*D5
10
298.4053015223
20
142.9841311557
11
295.7803015223
21
161.3966566799
70
160
1
=<>=
3
DIMSTYLE_1
100
AcDbAlignedDimension
13
219.6438671873
23
179.9841311557
14
219.6438671873
24
142.9841311557
50
270.000000
100
AcDbRotatedDimension
0
DIMENSION
5
4FA
100
AcDbEntity
8
0
100
AcDbDimension
62
2
6
CONTINUOUS
2
*D6
10
280.3135862216
20
153.4841311557
11
277.6885862216
21
161.5943803444
70
160
1
=<>=
3
DIMSTYLE_1
100
AcDbAlignedDimension
13
246.8874398408
23
169.4841311557
14
246.8874398408
24
153.4841311557
50
270.000000
100
AcDbRotatedDimension
0
DIMENSION
5
4FB
100
AcDbEntity
8
0
100
AcDbDimension
62
2
6
CONTINUOUS
2
*D7
10
329.4395996435
20
135.4841311557
11
326.8145996435
21
161.3400264692
70
160
1
=<>=
3
DIMSTYLE_1
100
AcDbAlignedDimension
13
232.5442940903
23
187.4841311557
14
232.5442940903
24
135.4841311557
50
270.000000
100
AcDbRotatedDimension
0
DIMENSION
5
4FC
100
AcDbEntity
8
0
100
AcDbDimension
62
2
6
CONTINUOUS
2
*D8
10
336.7454843384
20
133.9841311557
11
334.1204843384
21
161.1251475076
70
160
1
=<>=
3
DIMSTYLE_1
100
AcDbAlignedDimension
13
262.3874398408
23
188.9841311557
14
262.3874398408
24
133.9841311557
50
270.000000
100
AcDbRotatedDimension
0
DIMENSION
5
4FD
100
AcDbEntity
8
0
100
AcDbDimension
62
2
6
CONTINUOUS
2
*D9
10
344.1588085141
20
128.9841311557
11
341.5338085141
21
160.8028290651
70
160
1
=<>=
3
DIMSTYLE_1
100
AcDbAlignedDimension
13
195.4374398408
23
193.9841311557
14
201.9374398408
24
128.9841311557
50
270.000000
100
AcDbRotatedDimension
0
DIMENSION
5
4FE
100
AcDbEntity
8
0
100
AcDbDimension
62
2
6
CONTINUOUS
2
*D10
10
352.6465274978
20
122.9841311557
11
350.0215274978
21
160.6953895843
70
160
1
=<>=
3
DIMSTYLE_1
100
AcDbAlignedDimension
13
202.3874398408
23
199.9841311557
14
202.3874398408
24
122.9841311557
50
270.000000
100
AcDbRotatedDimension
0
DIMENSION
5
4FF
100
AcDbEntity
8
0
100
AcDbDimension
62
2
6
CONTINUOUS
2
*D11
10
109.4677385151
20
163.2341311557
11
106.8427385151
21
171.3589218183
70
160
3
DIMSTYLE_1
100
AcDbAlignedDimension
13
106.2677385151
23
161.4841311557
14
139.8489010338
24
163.2341311557
50
90.000000
100
AcDbRotatedDimension
0
DIMENSION
5
500
100
AcDbEntity
8
0
100
AcDbDimension
62
2
6
CONTINUOUS
2
*D12
10
91.1248956026
20
186.4841311557
11
88.4998956026
21
174.1205072821
70
160
3
DIMSTYLE_1
100
AcDbAlignedDimension
13
106.2159455437
23
161.4841311557
14
132.8489010338
24
186.4841311557
50
90.000000
100
AcDbRotatedDimension
0
DIMENSION
5
501
100
AcDbEntity
8
0
100
AcDbDimension
62
2
6
CONTINUOUS
2
*D13
10
120.3874398408
20
247.9761884043
11
106.2625749428
21
250.6011884043
70
160
3
DIMSTYLE_1
100
AcDbAlignedDimension
13
115.8874398408
23
204.9841311557
14
120.3874398408
24
205.5841311557
100
AcDbRotatedDimension
0
DIMENSION
5
502
100
AcDbEntity
8
0
100
AcDbDimension
62
2
6
CONTINUOUS
2
*D14
10
181.8874398408
20
247.9761884043
11
151.9877926576
21
250.6011884043
70
160
3
DIMSTYLE_1
100
AcDbAlignedDimension
13
120.3874398408
23
222.3523727888
14
181.8874398408
24
200.4842311557
100
AcDbRotatedDimension
0
DIMENSION
5
503
100
AcDbEntity
8
0
100
AcDbDimension
62
2
6
CONTINUOUS
2
*D15
10
186.8874398408
20
212.4088589583
11
181.8812738729
21
215.0338589583
70
160
1
=<>=
3
DIMSTYLE_1
100
AcDbAlignedDimension
13
176.8874398408
23
202.5341311557
14
186.8874398408
24
202.5341311557
100
AcDbRotatedDimension
0
DIMENSION
5
504
100
AcDbEntity
8
0
100
AcDbDimension
62
2
6
CONTINUOUS
2
*D16
10
139.3490010338
20
230.2138362383
11
151.9877926576
21
232.8388362383
70
160
1
=<>=
3
DIMSTYLE_1
100
AcDbAlignedDimension
13
164.3490010338
23
192.9842311557
14
139.3490010338
24
192.9842311557
50
180.000000
100
AcDbRotatedDimension
0
DIMENSION
5
505
100
AcDbEntity
8
0
100
AcDbDimension
62
2
6
CONTINUOUS
2
*D17
10
83.3414343215
20
181.4841311557
11
80.7164343215
21
186.4749677716
70
160
1
=<>=
3
DIMSTYLE_1
100
AcDbAlignedDimension
13
136.2346374091
23
191.4841311557
14
136.2346374091
24
181.4841311557
50
270.000000
100
AcDbRotatedDimension
0
DIMENSION
5
506
100
AcDbEntity
8
0
100
AcDbDimension
62
2
6
CONTINUOUS
2
*D18
10
118.8874398408
20
99.1989074897
11
107.9890586582
21
101.8239074897
70
160
3
DIMSTYLE_1
100
AcDbAlignedDimension
13
115.8874398408
23
117.9841311557
14
118.8874398408
24
138.9841311557
100
AcDbRotatedDimension
0
DIMENSION
5
507
100
AcDbEntity
8
0
100
AcDbDimension
62
2
6
CONTINUOUS
2
*D19
10
169.3874398408
20
90.6734797687
11
141.7826511819
21
93.2984797687
70
160
3
DIMSTYLE_1
100
AcDbAlignedDimension
13
115.8874398408
23
117.9841311557
14
169.3874398408
24
121.4841311557
100
AcDbRotatedDimension
0
DIMENSION
5
508
100
AcDbEntity
8
0
100
AcDbDimension
62
2
6
CONTINUOUS
2
*D20
10
154.8763732749
20
119.0959025880
11
87.1395355381
21
95.0417861918
70
162
3
DIMSTYLE_2
100
AcDb2LineAngularDimension
13
115.0783543123
23
119.4841311557
14
89.9576681138
24
119.4841311557
15
92.2190890371
25
102.3069338766
16
93.6980756363
26
111.2391056522
0
DIMENSION
5
509
100
AcDbEntity
8
0
100
AcDbDimension
62
2
6
CONTINUOUS
2
*D21
10
200.8874398408
20
82.5823569231
11
157.1278841649
21
85.2073569231
70
160
3
DIMSTYLE_1
100
AcDbAlignedDimension
13
115.8874398408
23
117.9841311557
14
200.8874398408
24
121.4841311557
100
AcDbRotatedDimension
0
DIMENSION
5
50A
100
AcDbEntity
8
0
100
AcDbDimension
62
2
6
CONTINUOUS
2
*D22
10
205.8010380034
20
74.6307361956
11
161.8709561778
21
77.2557361956
70
160
3
DIMSTYLE_3
100
AcDbAlignedDimension
13
115.8874398408
23
117.9841311557
14
205.8010380034
24
134.9841311557
100
AcDbRotatedDimension
0
DIMENSION
5
50B
100
AcDbEntity
8
0
100
AcDbDimension
62
2
6
CONTINUOUS
2
*D23
10
218.5874398408
20
66.4001112320
11
214.9338133201
21
69.0251112320
70
160
3
DIMSTYLE_1
100
AcDbAlignedDimension
13
210.5874398408
23
134.9841311557
14
218.5874398408
24
134.9841311557
100
AcDbRotatedDimension
0
DIMENSION
5
50C
100
AcDbEntity
8
0
100
AcDbDimension
62
2
6
CONTINUOUS
2
*D24
10
237.3874398408
20
66.4001112320
11
228.0604591977
21
69.0251112320
70
160
3
DIMSTYLE_1
100
AcDbAlignedDimension
13
218.5874398408
23
134.9841311557
14
237.3874398408
24
134.9841311557
100
AcDbRotatedDimension
0
DIMENSION
5
50D
100
AcDbEntity
8
0
100
AcDbDimension
62
2
6
CONTINUOUS
2
*D25
10
245.3874398408
20
66.4001112320
11
241.7770666878
21
69.0251112320
70
160
3
DIMSTYLE_1
100
AcDbAlignedDimension
13
237.3874398408
23
134.9841311557
14
245.3874398408
24
134.9841311557
100
AcDbRotatedDimension
0
DIMENSION
5
50E
100
AcDbEntity
8
0
100
AcDbDimension
62
2
6
CONTINUOUS
2
*D26
10
115.8874398408
20
66.4001112320
11
165.2295789283
21
69.0251112320
70
160
3
DIMSTYLE_1
100
AcDbAlignedDimension
13
210.5874398408
23
134.9841311557
14
115.8874398408
24
117.9841311557
50
180.000000
100
AcDbRotatedDimension
0
DIMENSION
5
50F
100
AcDbEntity
8
0
100
AcDbDimension
62
2
6
CONTINUOUS
2
*D27
10
164.3490010338
20
186.4841311557
11
176.4901340735
21
178.0612175233
70
164
3
DIMSTYLE_4
100
AcDbRadialDimension
15
167.8855506562
25
182.9496132581
0
DIMENSION
5
510
100
AcDbEntity
8
0
100
AcDbDimension
62
2
6
CONTINUOUS
2
*D28
10
157.3490010338
20
219.9404542801
11
151.7680852110
21
222.5654542801
70
160
1
=<>=
3
DIMSTYLE_1
100
AcDbAlignedDimension
13
146.3490010338
23
169.7342311557
14
157.3490010338
24
169.7342311557
100
AcDbRotatedDimension
0
DIMENSION
5
511
100
AcDbEntity
8
0
100
AcDbDimension
62
2
6
CONTINUOUS
2
*D29
10
169.8490010338
20
239.4689082257
11
152.4601320580
21
242.0939082257
70
160
1
=<>=
3
DIMSTYLE_1
100
AcDbAlignedDimension
13
133.8490010338
23
242.6689082257
14
169.8490010338
24
242.6689082257
100
AcDbRotatedDimension
0
DIMENSION
5
512
100
AcDbEntity
8
0
100
AcDbDimension
62
2
6
CONTINUOUS
2
*D30
10
129.8490010338
20
239.4689082257
11
131.8585072202
21
242.0939082257
70
160
3
DIMSTYLE_1
100
AcDbAlignedDimension
13
133.8490010338
23
165.4842311557
14
129.8490010338
24
165.4842311557
50
180.000000
100
AcDbRotatedDimension
0
DIMENSION
5
513
100
AcDbEntity
8
0
100
AcDbDimension
62
2
6
CONTINUOUS
2
*D31
10
173.8490010338
20
239.4689082257
11
171.8030176734
21
242.0939082257
70
160
3
DIMSTYLE_1
100
AcDbAlignedDimension
13
169.8490010338
23
165.4842311557
14
173.8490010338
24
165.4842311557
100
AcDbRotatedDimension
0
DIMENSION
5
514
100
AcDbEntity
8
0
100
AcDbDimension
62
2
6
CONTINUOUS
2
*D32
10
151.8490010338
20
212.4088589583
11
133.3303863428
21
215.0338589583
70
160
3
DIMSTYLE_3
100
AcDbAlignedDimension
13
115.8874398408
23
204.9841311557
14
151.8490010338
24
209.2088589583
100
AcDbRotatedDimension
0
DIMENSION
5
515
100
AcDbEntity
8
0
100
AcDbDimension
62
2
6
CONTINUOUS
2
*D33
10
115.8874398408
20
264.5058404144
11
158.4224107346
21
267.1308404144
70
160
3
DIMSTYLE_1
100
AcDbAlignedDimension
13
209.3874398408
23
166.9841311557
14
115.8874398408
24
204.9841311557
50
180.000000
100
AcDbRotatedDimension
0
DIMENSION
5
516
100
AcDbEntity
8
0
100
AcDbDimension
62
2
6
CONTINUOUS
2
*D34
10
249.3874398408
20
264.5058404144
11
232.4407336770
21
267.1308404144
70
160
3
DIMSTYLE_1
100
AcDbAlignedDimension
13
209.3874398408
23
267.7058404144
14
249.3874398408
24
166.9841311557
100
AcDbRotatedDimension
0
DIMENSION
5
517
100
AcDbEntity
8
0
100
AcDbDimension
62
2
6
CONTINUOUS
2
*D35
10
290.1009076137
20
149.9899053775
11
287.4759076137
21
161.1000711832
70
160
1
=<>=
3
DIMSTYLE_3
100
AcDbAlignedDimension
13
268.3874398408
23
173.0383569339
14
268.3874398408
24
149.9899053775
50
270.000000
100
AcDbRotatedDimension
0
DIMENSION
5
518
100
AcDbEntity
8
0
100
AcDbDimension
62
2
6
CONTINUOUS
2
*D36
10
306.8085572630
20
142.4841311557
11
304.1835572630
21
161.7921040089
70
160
1
=38=
3
DIMSTYLE_3
100
AcDbAlignedDimension
13
264.8874398408
23
180.5441311557
14
264.8874398408
24
142.4841311557
50
270.000000
100
AcDbRotatedDimension
0
DIMENSION
5
519
100
AcDbEntity
8
0
100
AcDbDimension
62
2
6
CONTINUOUS
2
*D37
10
115.8874398408
20
281.7308411845
11
192.9178751507
21
284.3558411845
70
160
3
DIMSTYLE_1
100
AcDbAlignedDimension
13
266.8874398408
23
174.5383569339
14
115.8874398408
24
204.9841311557
50
180.000000
100
AcDbRotatedDimension
0
DIMENSION
5
51A
100
AcDbEntity
8
0
100
AcDbDimension
62
2
6
CONTINUOUS
2
*D38
10
115.8874398408
20
256.1470607958
11
154.4886108748
21
258.7720607958
70
160
3
DIMSTYLE_1
100
AcDbAlignedDimension
13
200.8874398408
23
192.0341311557
14
115.8874398408
24
204.9841311557
50
180.000000
100
AcDbRotatedDimension
0
DIMENSION
5
51B
100
AcDbEntity
8
0
100
AcDbDimension
62
2
6
CONTINUOUS
2
*D39
10
229.3874398408
20
256.1470607958
11
216.3188874019
21
258.7720607958
70
160
3
DIMSTYLE_1
100
AcDbAlignedDimension
13
200.8874398408
23
192.0341311557
14
229.3874398408
24
192.0341311557
100
AcDbRotatedDimension
0
DIMENSION
5
51C
100
AcDbEntity
8
0
100
AcDbDimension
62
2
6
CONTINUOUS
2
*D40
10
229.3874398408
20
256.1470607958
11
244.1042153333
21
258.7720607958
70
160
3
DIMSTYLE_1
100
AcDbAlignedDimension
13
257.8874398408
23
184.9841311557
14
229.3874398408
24
184.9841311557
50
180.000000
100
AcDbRotatedDimension
0
DIMENSION
5
51D
100
AcDbEntity
8
0
100
AcDbDimension
62
2
6
CONTINUOUS
2
*D41
10
232.0442940903
20
212.4088589583
11
216.5803191605
21
215.0338589583
70
160
1
=<>=
3
DIMSTYLE_3
100
AcDbAlignedDimension
13
226.7305855913
23
187.9841311557
14
232.0442940903
24
187.9841311557
100
AcDbRotatedDimension
0
DIMENSION
5
51E
100
AcDbEntity
8
0
100
AcDbDimension
62
2
6
CONTINUOUS
2
*D42
10
115.8874398408
20
273.8536363535
11
193.7931201319
21
276.4786363535
70
160
3
DIMSTYLE_1
100
AcDbAlignedDimension
13
263.3874398408
23
187.9841311557
14
115.8874398408
24
204.9841311557
50
180.000000
100
AcDbRotatedDimension
0
DIMENSION
5
51F
100
AcDbEntity
8
0
100
AcDbDimension
62
2
6
CONTINUOUS
2
*D43
10
260.8874398408
20
212.4088589583
11
245.0109284161
21
215.0338589583
70
160
1
=<>=
3
DIMSTYLE_1
100
AcDbAlignedDimension
13
255.3874398408
23
190.4841311557
14
260.8874398408
24
190.4841311557
100
AcDbRotatedDimension
0
DIMENSION
5
520
100
AcDbEntity
8
0
100
AcDbDimension
62
2
6
CONTINUOUS
2
*D44
10
258.8042429906
20
137.6505630537
11
278.9541268329
21
116.2846284903
70
163
1
6<>
3
DIMSTYLE_5
100
AcDbDiametricDimension
15
256.9706366911
25
141.3176992577
0
DIMENSION
5
521
100
AcDbEntity
8
0
100
AcDbDimension
62
2
6
CONTINUOUS
2
*D45
10
182.0346656644
20
127.4438383174
11
156.3581633077
21
110.2504326965
70
163
1
4<>
3
DIMSTYLE_5
100
AcDbDiametricDimension
15
184.7402140172
25
130.5244239940
0
DIMENSION
5
522
100
AcDbEntity
8
0
100
AcDbDimension
62
2
6
CONTINUOUS
2
*D46
10
187.7128851149
20
127.6443640410
11
163.4804608274
21
101.1740667053
70
163
1
2<>H8
3
DIMSTYLE_5
100
AcDbDiametricDimension
15
189.0619945668
25
130.3238982704
0
DIMENSION
5
523
100
AcDbEntity
8
0
100
AcDbDimension
62
2
6
CONTINUOUS
2
*D47
10
189.8979728240
20
161.4841311557
11
187.2729728240
21
170.6161918131
70
160
3
DIMSTYLE_1
100
AcDbAlignedDimension
13
180.3491010338
23
158.9841311557
14
193.0979728240
24
161.4841311557
50
90.000000
100
AcDbRotatedDimension
0
DIMENSION
5
524
100
AcDbEntity
8
0
100
AcDbDimension
62
2
6
CONTINUOUS
2
*D48
10
189.8979728240
20
158.9841311557
11
187.2729728240
21
146.2672918731
70
160
3
DIMSTYLE_1
100
AcDbAlignedDimension
13
180.3491010338
23
135.4841311557
14
180.3491010338
24
158.9841311557
50
90.000000
100
AcDbRotatedDimension
0
DIMENSION
5
525
100
AcDbEntity
8
0
100
AcDbDimension
62
2
6
CONTINUOUS
2
*D49
10
181.7828629379
20
155.9841311557
11
179.1578629379
21
146.5343629188
70
160
1
=<>=
3
DIMSTYLE_1
100
AcDbAlignedDimension
13
175.3490010338
23
161.9841311557
14
175.3490010338
24
155.9841311557
50
270.000000
100
AcDbRotatedDimension
0
DIMENSION
5
526
100
AcDbEntity
8
0
100
AcDbDimension
62
2
6
CONTINUOUS
2
*D50
10
99.9304691179
20
147.2341311557
11
97.3054691179
21
154.9353213686
70
160
3
DIMSTYLE_1
100
AcDbAlignedDimension
13
144.8490010338
23
163.2341311557
14
96.7304691179
24
147.2341311557
50
270.000000
100
AcDbRotatedDimension
0
DIMENSION
5
527
100
AcDbEntity
8
0
100
AcDbDimension
62
2
6
CONTINUOUS
2
*D51
10
99.9304691179
20
147.2341311557
11
97.3054691179
21
139.1654981671
70
160
3
DIMSTYLE_1
100
AcDbAlignedDimension
13
144.8490010338
23
131.2341311557
14
144.8490010338
24
147.2341311557
50
90.000000
100
AcDbRotatedDimension
0
DIMENSION
5
528
100
AcDbEntity
8
0
100
AcDbDimension
62
2
6
CONTINUOUS
2
*D52
10
109.4677385151
20
144.2341311557
11
106.8427385151
21
136.0332155085
70
160
1
=<>=
3
DIMSTYLE_1
100
AcDbAlignedDimension
13
144.8490010338
23
150.2341311557
14
144.8490010338
24
144.2341311557
50
270.000000
100
AcDbRotatedDimension
0
DIMENSION
5
529
100
AcDbEntity
8
0
100
AcDbDimension
62
2
6
CONTINUOUS
2
*D53
10
119.3770711471
20
198.7247580547
11
91.3145801503
21
225.0788223085
70
163
1
2<>
3
DIMSTYLE_5
100
AcDbDiametricDimension
15
121.3978085346
25
196.2435042566
0
DIMENSION
5
52A
100
AcDbEntity
8
0
100
AcDbDimension
62
2
6
CONTINUOUS
2
*D54
10
119.4178038487
20
190.6285987362
11
90.1684303352
21
216.4655520923
70
163
1
2<>H8
3
DIMSTYLE_5
100
AcDbDiametricDimension
15
121.3570758330
25
188.3396635752
0
DIMENSION
5
52B
100
AcDbEntity
8
0
100
AcDbDimension
62
2
6
CONTINUOUS
2
*D55
10
398.1976119066
20
217.8431995165
11
408.0288003096
21
220.4681995165
70
160
3
DIMSTYLE_1
100
AcDbAlignedDimension
13
395.6976119066
23
204.9841311557
14
398.1976119066
24
204.9841311557
100
AcDbRotatedDimension
0
DIMENSION
5
52C
100
AcDbEntity
8
0
100
AcDbDimension
62
2
6
CONTINUOUS
2
*D56
10
157.3490010338
20
163.2341311557
11
164.5752317710
21
172.8694256943
70
164
3
DIMSTYLE_4
100
AcDbRadialDimension
15
159.6287804410
25
165.1841582977
0
DIMENSION
5
52D
100
AcDbEntity
8
0
100
AcDbDimension
62
2
6
CONTINUOUS
2
*D57
10
169.8490010338
20
135.4841311557
11
163.8765577123
21
144.8462153256
70
164
3
DIMSTYLE_4
100
AcDbRadialDimension
15
167.6834113504
25
137.5602384080
0
DIMENSION
5
52E
100
AcDbEntity
8
0
100
AcDbDimension
62
2
6
CONTINUOUS
2
*D58
10
213.3874398408
20
157.4841311557
11
202.0127485203
21
152.1285407782
70
164
3
DIMSTYLE_4
100
AcDbRadialDimension
15
210.2040282573
25
155.0621710631
0
LINE
5
52F
100
AcDbEntity
8
0
100
AcDbLine
62
2
6
CONTINUOUS
10
278.9948490183
20
76.1933879918
11
444.9948490183
21
76.1933879918
0
LINE
5
530
100
AcDbEntity
8
0
100
AcDbLine
62
2
6
CONTINUOUS
10
278.9948490183
20
76.1933879918
11
278.9948490183
21
12.1933879918
0
LINE
5
531
100
AcDbEntity
8
0
100
AcDbLine
62
2
6
CONTINUOUS
10
278.9948490183
20
71.6933879918
11
444.9948490183
21
71.6933879918
0
LINE
5
532
100
AcDbEntity
8
0
100
AcDbLine
62
2
6
CONTINUOUS
10
278.9948490183
20
67.1933879918
11
444.9948490183
21
67.1933879918
0
LINE
5
533
100
AcDbEntity
8
0
100
AcDbLine
62
2
6
CONTINUOUS
10
278.9948490183
20
62.6933879918
11
444.9948490183
21
62.6933879918
0
LINE
5
534
100
AcDbEntity
8
0
100
AcDbLine
62
2
6
CONTINUOUS
10
278.9948490183
20
58.1933879918
11
444.9948490183
21
58.1933879918
0
LINE
5
535
100
AcDbEntity
8
0
100
AcDbLine
62
2
6
CONTINUOUS
10
278.9948490183
20
53.6933879918
11
444.9948490183
21
53.6933879918
0
LINE
5
536
100
AcDbEntity
8
0
100
AcDbLine
62
2
6
CONTINUOUS
10
278.9948490183
20
49.1933879918
11
444.9948490183
21
49.1933879918
0
LINE
5
537
100
AcDbEntity
8
0
100
AcDbLine
62
2
6
CONTINUOUS
10
398.9948490183
20
40.1933879918
11
444.9948490183
21
40.1933879918
0
LINE
5
538
100
AcDbEntity
8
0
100
AcDbLine
62
2
6
CONTINUOUS
10
278.9948490183
20
29.6933879918
11
444.9948490183
21
29.6933879918
0
LINE
5
539
100
AcDbEntity
8
0
100
AcDbLine
62
2
6
CONTINUOUS
10
278.9948490183
20
21.6933879918
11
444.9948490183
21
21.6933879918
0
LINE
5
53A
100
AcDbEntity
8
0
100
AcDbLine
62
2
6
CONTINUOUS
10
278.9948490183
20
12.1933879918
11
444.9948490183
21
12.1933879918
0
LINE
5
53B
100
AcDbEntity
8
0
100
AcDbLine
62
2
6
CONTINUOUS
10
293.9948490183
20
76.1933879918
11
293.9948490183
21
49.1933879918
0
LINE
5
53C
100
AcDbEntity
8
0
100
AcDbLine
62
2
6
CONTINUOUS
10
308.9948490183
20
76.1933879918
11
308.9948490183
21
49.1933879918
0
LINE
5
53D
100
AcDbEntity
8
0
100
AcDbLine
62
2
6
CONTINUOUS
10
318.9948490183
20
29.6933879918
11
318.9948490183
21
21.6933879918
0
LINE
5
53E
100
AcDbEntity
8
0
100
AcDbLine
62
2
6
CONTINUOUS
10
323.9948490183
20
76.1933879918
11
323.9948490183
21
49.1933879918
0
LINE
5
53F
100
AcDbEntity
8
0
100
AcDbLine
62
2
6
CONTINUOUS
10
338.9948490183
20
76.1933879918
11
338.9948490183
21
49.1933879918
0
LINE
5
540
100
AcDbEntity
8
0
100
AcDbLine
62
2
6
CONTINUOUS
10
358.9948490183
20
29.6933879918
11
358.9948490183
21
21.6933879918
0
LINE
5
541
100
AcDbEntity
8
0
100
AcDbLine
62
2
6
CONTINUOUS
10
398.9948490183
20
49.1933879918
11
398.9948490183
21
12.1933879918
0
LINE
5
542
100
AcDbEntity
8
0
100
AcDbLine
62
2
6
CONTINUOUS
10
424.9948490183
20
40.1933879918
11
424.9948490183
21
29.6933879918
0
LINE
5
543
100
AcDbEntity
8
0
100
AcDbLine
62
2
6
CONTINUOUS
10
444.9948490183
20
76.1933879918
11
444.9948490183
21
12.1933879918
0
TEXT
5
544
100
AcDbEntity
8
0
100
AcDbText
62
2
6
CONTINUOUS
10
285.6948490183
20
72.9433879918
7
STANDARD
40
2.0000000000
1
D
41
0.8000000000
72
1
11
286.4948490183
21
72.9433879918
100
AcDbText
0
TEXT
5
545
100
AcDbEntity
8
0
100
AcDbText
62
2
6
CONTINUOUS
10
285.6948490183
20
68.4433879918
7
STANDARD
40
2.0000000000
1
C
41
0.8000000000
72
1
11
286.4948490183
21
68.4433879918
100
AcDbText
0
TEXT
5
546
100
AcDbEntity
8
0
100
AcDbText
62
2
6
CONTINUOUS
10
285.6948490183
20
63.9433879918
7
STANDARD
40
2.0000000000
1
B
41
0.8000000000
72
1
11
286.4948490183
21
63.9433879918
100
AcDbText
0
TEXT
5
547
100
AcDbEntity
8
0
100
AcDbText
62
2
6
CONTINUOUS
10
285.6948490183
20
59.4433879918
7
STANDARD
40
2.0000000000
1
A
41
0.8000000000
72
1
11
286.4948490183
21
59.4433879918
100
AcDbText
0
TEXT
5
548
100
AcDbEntity
8
0
100
AcDbText
62
2
6
CONTINUOUS
10
315.6948490183
20
59.4433879918
7
STANDARD
40
2.0000000000
1
 
41
0.8000000000
72
1
11
316.4948490183
21
59.4433879918
100
AcDbText
0
TEXT
5
549
100
AcDbEntity
8
0
100
AcDbText
62
2
6
CONTINUOUS
10
330.6948490183
20
59.4433879918
7
STANDARD
40
2.0000000000
1
 
41
0.8000000000
72
1
11
331.4948490183
21
59.4433879918
100
AcDbText
0
TEXT
5
54A
100
AcDbEntity
8
0
100
AcDbText
62
2
6
CONTINUOUS
10
283.2948490183
20
54.9433879918
7
STANDARD
40
2.0000000000
1
IND.
41
0.8000000000
72
1
11
286.4948490183
21
54.9433879918
100
AcDbText
0
TEXT
5
54B
100
AcDbEntity
8
0
100
AcDbText
62
2
6
CONTINUOUS
10
298.2948490183
20
54.9433879918
7
STANDARD
40
2.0000000000
1
DATE
41
0.8000000000
72
1
11
301.4948490183
21
54.9433879918
100
AcDbText
0
TEXT
5
54C
100
AcDbEntity
8
0
100
AcDbText
62
2
6
CONTINUOUS
10
312.4948490183
20
54.9433879918
7
STANDARD
40
2.0000000000
1
DESS.
41
0.8000000000
72
1
11
316.4948490183
21
54.9433879918
100
AcDbText
0
TEXT
5
54D
100
AcDbEntity
8
0
100
AcDbText
62
2
6
CONTINUOUS
10
326.6948490183
20
54.9433879918
7
STANDARD
40
2.0000000000
1
VERIF.
41
0.8000000000
72
1
11
331.4948490183
21
54.9433879918
100
AcDbText
0
TEXT
5
54E
100
AcDbEntity
8
0
100
AcDbText
62
2
6
CONTINUOUS
10
381.5948490183
20
54.9433879918
7
STANDARD
40
2.0000000000
1
MODIFICATIONS
41
0.8000000000
72
1
11
391.9948490183
21
54.9433879918
100
AcDbText
0
TEXT
5
54F
100
AcDbEntity
8
0
100
AcDbText
62
2
6
CONTINUOUS
10
280.0948490183
20
50.4433879918
7
STANDARD
40
2.0000000000
1
Création
41
0.8000000000
72
1
11
286.4948490183
21
50.4433879918
100
AcDbText
0
TEXT
5
550
100
AcDbEntity
8
0
100
AcDbText
62
2
6
CONTINUOUS
10
294.2948490183
20
50.4433879918
7
STANDARD
40
2.0000000000
1
08-Nov-21
41
0.8000000000
72
1
11
301.4948490183
21
50.4433879918
100
AcDbText
0
TEXT
5
551
100
AcDbEntity
8
0
100
AcDbText
62
2
6
CONTINUOUS
10
311.6948490183
20
50.4433879918
7
STANDARD
40
2.0000000000
1
BALLON
41
0.8000000000
72
1
11
316.4948490183
21
50.4433879918
100
AcDbText
0
TEXT
5
552
100
AcDbEntity
8
0
100
AcDbText
62
2
6
CONTINUOUS
10
329.0948490183
20
50.4433879918
7
STANDARD
40
2.0000000000
1
B.L
41
0.8000000000
72
1
11
331.4948490183
21
50.4433879918
100
AcDbText
0
TEXT
5
553
100
AcDbEntity
8
0
100
AcDbText
62
2
6
CONTINUOUS
10
339.0573490183
20
50.4433879918
7
STANDARD
40
2.0000000000
1
  Annule et remplace plan N%%d:                      ind:
41
0.7975757576
72
0
100
AcDbText
0
TEXT
5
554
100
AcDbEntity
8
0
100
AcDbText
62
2
6
CONTINUOUS
10
280.3948490183
20
45.9433879918
7
STANDARD
40
2.0000000000
1
ETAT DE SURFACES:
41
0.8000000000
72
1
11
293.9948490183
21
45.9433879918
100
AcDbText
0
TEXT
5
555
100
AcDbEntity
8
0
100
AcDbText
62
2
6
CONTINUOUS
10
342.5948490183
20
45.9433879918
7
STANDARD
40
2.0000000000
1
CASSER LES ANGLES VIFS: 0,5 x 0,5
41
0.8000000000
72
1
11
368.9948490183
21
45.9433879918
100
AcDbText
0
TEXT
5
556
100
AcDbEntity
8
0
100
AcDbText
62
2
6
CONTINUOUS
10
404.6281823516
20
32.9433879918
7
TEXTSTYLE_1
40
4.0000000000
1
ECH: 
41
0.6700000000
72
1
11
411.3281823516
21
32.9433879918
100
AcDbText
0
TEXT
5
557
100
AcDbEntity
8
0
100
AcDbText
62
2
6
CONTINUOUS
10
418.0281823516
20
32.9433879918
7
TEXTSTYLE_1
40
4.0000000000
1
1
41
0.3333333333
72
1
11
418.6948490183
21
32.9433879918
100
AcDbText
0
TEXT
5
558
100
AcDbEntity
8
0
100
AcDbText
62
2
6
CONTINUOUS
10
431.9281823516
20
32.9433879918
7
TEXTSTYLE_1
40
4.0000000000
1
A3
41
0.7666666667
72
1
11
434.9948490183
21
32.9433879918
100
AcDbText
0
TEXT
5
559
100
AcDbEntity
8
0
100
AcDbText
62
2
6
CONTINUOUS
10
348.1948490183
20
32.4433879918
7
STANDARD
40
2.0000000000
1
TOL. GENERALE: JS13 - js13
41
0.8000000000
72
1
11
368.9948490183
21
32.4433879918
100
AcDbText
0
TEXT
5
55A
100
AcDbEntity
8
0
100
AcDbText
62
2
6
CONTINUOUS
10
279.0573490183
20
29.4590129918
7
STANDARD
40
0.1562500000
1
 
41
0.8000000000
72
0
100
AcDbText
0
TEXT
5
55B
100
AcDbEntity
8
0
100
AcDbText
62
2
6
CONTINUOUS
10
279.0573490183
20
26.9199504918
7
STANDARD
40
2.0000000000
1
MATIERE
41
0.8000000000
72
0
100
AcDbText
0
TEXT
5
55C
100
AcDbEntity
8
0
100
AcDbText
62
2
6
CONTINUOUS
10
319.0573490183
20
29.4590129918
7
STANDARD
40
0.1562500000
1
 
41
0.8000000000
72
0
100
AcDbText
0
TEXT
5
55D
100
AcDbEntity
8
0
100
AcDbText
62
2
6
CONTINUOUS
10
319.0573490183
20
26.9199504918
7
STANDARD
40
2.0000000000
1
TRAITEMENT
41
0.8000000000
72
0
100
AcDbText
0
TEXT
5
55E
100
AcDbEntity
8
0
100
AcDbText
62
2
6
CONTINUOUS
10
359.0573490183
20
29.4590129918
7
STANDARD
40
0.1562500000
1
 
41
0.8000000000
72
0
100
AcDbText
0
TEXT
5
55F
100
AcDbEntity
8
0
100
AcDbText
62
2
6
CONTINUOUS
10
359.0573490183
20
26.9199504918
7
STANDARD
40
2.0000000000
1
PROTECTION
41
0.8000000000
72
0
100
AcDbText
0
TEXT
5
560
100
AcDbEntity
8
0
100
AcDbText
62
2
6
CONTINUOUS
10
404.5781823516
20
23.1548214620
7
TEXTSTYLE_1
40
5.0000000000
1
FSM France
41
0.6966666667
51
10.0000000000
72
1
11
421.9948490183
21
23.1548214620
100
AcDbText
0
TEXT
5
561
100
AcDbEntity
8
0
100
AcDbText
62
2
6
CONTINUOUS
10
298.9323490183
20
26.0097942418
7
STANDARD
40
0.1562500000
1
 
41
0.8000000000
72
1
11
298.9948490183
21
26.0097942418
100
AcDbText
0
TEXT
5
562
100
AcDbEntity
8
0
100
AcDbText
62
2
6
CONTINUOUS
10
294.5948490183
20
22.2207317418
7
TEXTSTYLE_1
40
3.0000000000
1
7075
41
0.7333333333
72
1
11
298.9948490183
21
22.2207317418
100
AcDbText
0
TEXT
5
563
100
AcDbEntity
8
0
100
AcDbText
62
2
6
CONTINUOUS
10
338.9323490183
20
24.1347942418
7
STANDARD
40
0.1562500000
1
 
41
0.8000000000
72
1
11
338.9948490183
21
24.1347942418
100
AcDbText
0
TEXT
5
564
100
AcDbEntity
8
0
100
AcDbText
62
2
6
CONTINUOUS
10
338.9948490183
20
24.0957317418
7
TEXTSTYLE_1
40
3.0000000000
1

41
1.0000000000
72
1
11
338.9948490183
21
24.0957317418
100
AcDbText
0
TEXT
5
565
100
AcDbEntity
8
0
100
AcDbText
62
2
6
CONTINUOUS
10
378.9323490154
20
24.1347942400
7
STANDARD
40
0.1562500000
1
 
41
0.8000000000
72
1
11
378.9948490154
21
24.1347942400
100
AcDbText
0
TEXT
5
566
100
AcDbEntity
8
0
100
AcDbText
62
2
6
CONTINUOUS
10
378.9948490183
20
24.0957317388
7
TEXTSTYLE_1
40
3.0000000000
1

41
1.0000000000
72
1
11
378.9948490183
21
24.0957317388
100
AcDbText
0
TEXT
5
567
100
AcDbEntity
8
0
100
AcDbText
62
2
6
CONTINUOUS
10
298.9323490154
20
19.4941692395
7
STANDARD
40
0.1562500000
1
 
41
0.8000000000
72
1
11
298.9948490154
21
19.4941692395
100
AcDbText
0
TEXT
5
568
100
AcDbEntity
8
0
100
AcDbText
62
2
6
CONTINUOUS
10
282.9010990183
20
14.2363567393
7
TEXTSTYLE_1
40
5.0000000000
1
DESIGNATION :
41
0.4951923077
72
1
11
298.9948490183
21
14.2363567393
100
AcDbText
0
TEXT
5
569
100
AcDbEntity
8
0
100
AcDbText
62
2
6
CONTINUOUS
10
358.9323490183
20
19.4941692418
7
STANDARD
40
0.1562500000
1
 
41
0.8000000000
72
1
11
358.9948490183
21
19.4941692418
100
AcDbText
0
TEXT
5
56A
100
AcDbEntity
8
0
100
AcDbText
62
2
6
CONTINUOUS
10
339.3698490183
20
14.2363567418
7
TEXTSTYLE_1
40
5.0000000000
1
PLATINE ARRIERE
41
0.5233333333
72
1
11
358.9948490183
21
14.2363567418
100
AcDbText
0
TEXT
5
56B
100
AcDbEntity
8
0
100
AcDbText
62
2
6
CONTINUOUS
10
404.4010977822
20
14.6504191693
7
TEXTSTYLE_1
40
5.0000000000
1
 N : 100058-A 
41
0.5026785714
72
1
11
421.9948477822
21
14.6504191693
100
AcDbText
0
TEXT
5
56C
100
AcDbEntity
8
0
100
AcDbText
62
2
6
CONTINUOUS
10
421.9323490183
20
14.2363566617
7
TEXTSTYLE_1
40
0.1562500000
1
 
41
0.8000000000
72
1
11
421.9948490183
21
14.2363566617
100
AcDbText
0
INSERT
5
56D
100
AcDbEntity
8
0
100
AcDbBlockReference
62
2
6
CONTINUOUS
2
N-CAR_BL2
10
0.0000000000
20
0.0000000000
0
LINE
5
56E
100
AcDbEntity
8
0
100
AcDbLine
62
7
6
CONTINUOUS
10
30.0000000000
20
7.0000000000
11
30.0000000000
21
304.0000000000
0
LINE
5
56F
100
AcDbEntity
8
0
100
AcDbLine
62
7
6
CONTINUOUS
10
35.0000000000
20
12.0000000000
11
35.0000000000
21
299.0000000000
0
LINE
5
570
100
AcDbEntity
8
0
100
AcDbLine
62
7
6
CONTINUOUS
10
30.0000000000
20
7.0000000000
11
450.0000000000
21
7.0000000000
0
LINE
5
571
100
AcDbEntity
8
0
100
AcDbLine
62
7
6
CONTINUOUS
10
35.0000000000
20
12.0000000000
11
445.0000000000
21
12.0000000000
0
LINE
5
572
100
AcDbEntity
8
0
100
AcDbLine
62
7
6
CONTINUOUS
10
30.0000000000
20
155.5000000000
11
35.0000000000
21
158.3867513459
0
LINE
5
573
100
AcDbEntity
8
0
100
AcDbLine
62
7
6
CONTINUOUS
10
30.0000000000
20
155.5000000000
11
35.0000000000
21
152.6132486541
0
LINE
5
574
100
AcDbEntity
8
0
100
AcDbLine
62
7
6
CONTINUOUS
10
237.1132486541
20
299.0000000000
11
240.0000000000
21
304.0000000000
0
LINE
5
575
100
AcDbEntity
8
0
100
AcDbLine
62
7
6
CONTINUOUS
10
240.0000000000
20
7.0000000000
11
237.1132486541
21
12.0000000000
0
LINE
5
576
100
AcDbEntity
8
0
100
AcDbLine
62
7
6
CONTINUOUS
10
240.0000000000
20
7.0000000000
11
242.8867513459
21
12.0000000000
0
LINE
5
577
100
AcDbEntity
8
0
100
AcDbLine
62
7
6
CONTINUOUS
10
242.8867513459
20
299.0000000000
11
240.0000000000
21
304.0000000000
0
LINE
5
578
100
AcDbEntity
8
0
100
AcDbLine
62
7
6
CONTINUOUS
10
445.0000000000
20
152.6132486541
11
450.0000000000
21
155.5000000000
0
LINE
5
579
100
AcDbEntity
8
0
100
AcDbLine
62
7
6
CONTINUOUS
10
445.0000000000
20
158.3867513459
11
450.0000000000
21
155.5000000000
0
LINE
5
57A
100
AcDbEntity
8
0
100
AcDbLine
62
7
6
CONTINUOUS
10
35.0000000000
20
299.0000000000
11
445.0000000000
21
299.0000000000
0
LINE
5
57B
100
AcDbEntity
8
0
100
AcDbLine
62
7
6
CONTINUOUS
10
30.0000000000
20
304.0000000000
11
450.0000000000
21
304.0000000000
0
LINE
5
57C
100
AcDbEntity
8
0
100
AcDbLine
62
7
6
CONTINUOUS
10
445.0000000000
20
12.0000000000
11
445.0000000000
21
299.0000000000
0
LINE
5
57D
100
AcDbEntity
8
0
100
AcDbLine
62
7
6
CONTINUOUS
10
450.0000000000
20
7.0000000000
11
450.0000000000
21
304.0000000000
0
LINE
5
57E
100
AcDbEntity
8
0
100
AcDbLine
62
2
6
CONTINUOUS
10
82.3562022048
20
91.5417861918
11
82.3562022048
21
98.5417861918
0
LINE
5
57F
100
AcDbEntity
8
0
100
AcDbLine
62
2
6
CONTINUOUS
10
91.9228688714
20
98.5417861918
11
91.9228688714
21
91.5417861918
0
LINE
5
580
100
AcDbEntity
8
0
100
AcDbLine
62
7
6
CONTINUOUS
10
115.8874398408
20
119.4841311557
11
115.8874398408
21
137.4841311557
0
LINE
5
581
100
AcDbEntity
8
0
100
AcDbLine
62
7
6
CONTINUOUS
10
115.8874398408
20
185.4841311557
11
115.8874398408
21
203.4841311557
0
LINE
5
582
100
AcDbEntity
8
0
100
AcDbLine
62
7
6
CONTINUOUS
10
118.8874398408
20
140.4841311557
11
118.8874398408
21
182.4841311557
0
LINE
5
583
100
AcDbEntity
8
0
100
AcDbLine
62
2
6
CONTINUOUS
10
91.9228688714
20
91.5417861918
11
82.3562022048
21
91.5417861918
0
LINE
5
584
100
AcDbEntity
8
DEFAULT_1
100
AcDbLine
62
2
6
CENTER
10
120.3874398408
20
197.4841311557
11
120.3874398408
21
190.8841311557
0
LINE
5
585
100
AcDbEntity
8
DEFAULT_1
100
AcDbLine
62
2
6
CENTER
10
120.3874398408
20
189.4841311557
11
120.3874398408
21
184.4840311557
0
LINE
5
586
100
AcDbEntity
8
DEFAULT_1
100
AcDbLine
62
2
6
CENTER
10
120.3874398408
20
133.4841311557
11
120.3874398408
21
128.4840311557
0
LINE
5
587
100
AcDbEntity
8
DEFAULT_1
100
AcDbLine
62
2
6
CENTER
10
120.3874398408
20
125.4841311557
11
120.3874398408
21
118.8841311557
0
LINE
5
588
100
AcDbEntity
8
DEFAULT_1
100
AcDbLine
62
2
6
CENTER
10
120.3874398408
20
125.4841311557
11
120.3874398408
21
128.4840311557
0
LINE
5
589
100
AcDbEntity
8
DEFAULT_1
100
AcDbLine
62
2
6
CENTER
10
120.3874398408
20
133.4841311557
11
120.3874398408
21
138.4842311557
0
LINE
5
58A
100
AcDbEntity
8
DEFAULT_1
100
AcDbLine
62
2
6
CENTER
10
120.3874398408
20
189.4841311557
11
120.3874398408
21
190.8841311557
0
LINE
5
58B
100
AcDbEntity
8
DEFAULT_1
100
AcDbLine
62
2
6
CENTER
10
120.3874398408
20
197.4841311557
11
120.3874398408
21
204.0841311557
0
LINE
5
58C
100
AcDbEntity
8
0
100
AcDbLine
62
2
6
CONTINUOUS
10
82.3562022048
20
98.5417861918
11
91.9228688714
21
98.5417861918
0
LINE
5
58D
100
AcDbEntity
8
DEFAULT_1
100
AcDbLine
62
2
6
CENTER
10
129.8490010338
20
158.9841311557
11
129.8490010338
21
153.9840311557
0
LINE
5
58E
100
AcDbEntity
8
DEFAULT_1
100
AcDbLine
62
2
6
CENTER
10
129.8490010338
20
135.4841311557
11
129.8490010338
21
130.4840311557
0
LINE
5
58F
100
AcDbEntity
8
DEFAULT_1
100
AcDbLine
62
2
6
CENTER
10
129.8490010338
20
135.4841311557
11
129.8490010338
21
140.4842311557
0
LINE
5
590
100
AcDbEntity
8
DEFAULT_1
100
AcDbLine
62
2
6
CENTER
10
129.8490010338
20
158.9841311557
11
129.8490010338
21
163.9842311557
0
LINE
5
591
100
AcDbEntity
8
DEFAULT_1
100
AcDbLine
62
2
6
CENTER
10
133.8490010338
20
158.9841311557
11
133.8490010338
21
153.9840311557
0
LINE
5
592
100
AcDbEntity
8
DEFAULT_1
100
AcDbLine
62
2
6
CENTER
10
133.8490010338
20
135.4841311557
11
133.8490010338
21
130.4840311557
0
LINE
5
593
100
AcDbEntity
8
DEFAULT_1
100
AcDbLine
62
2
6
CENTER
10
133.8490010338
20
135.4841311557
11
133.8490010338
21
140.4842311557
0
LINE
5
594
100
AcDbEntity
8
DEFAULT_1
100
AcDbLine
62
2
6
CENTER
10
133.8490010338
20
158.9841311557
11
133.8490010338
21
163.9842311557
0
LINE
5
595
100
AcDbEntity
8
DEFAULT_1
100
AcDbLine
62
2
6
CENTER
10
139.3490010338
20
186.4841311557
11
139.3490010338
21
181.4840311557
0
LINE
5
596
100
AcDbEntity
8
DEFAULT_1
100
AcDbLine
62
2
6
CENTER
10
139.3490010338
20
186.4841311557
11
139.3490010338
21
191.4842311557
0
LINE
5
597
100
AcDbEntity
8
DEFAULT_1
100
AcDbLine
62
2
6
CENTER
10
146.3490010338
20
163.2341311557
11
146.3490010338
21
158.2340311557
0
LINE
5
598
100
AcDbEntity
8
DEFAULT_1
100
AcDbLine
62
2
6
CENTER
10
146.3490010338
20
147.2341311557
11
146.3490010338
21
142.2340311557
0
LINE
5
599
100
AcDbEntity
8
DEFAULT_1
100
AcDbLine
62
2
6
CENTER
10
146.3490010338
20
131.2341311557
11
146.3490010338
21
126.2340311557
0
LINE
5
59A
100
AcDbEntity
8
DEFAULT_1
100
AcDbLine
62
2
6
CENTER
10
146.3490010338
20
131.2341311557
11
146.3490010338
21
136.2342311557
0
LINE
5
59B
100
AcDbEntity
8
DEFAULT_1
100
AcDbLine
62
2
6
CENTER
10
146.3490010338
20
147.2341311557
11
146.3490010338
21
152.2342311557
0
LINE
5
59C
100
AcDbEntity
8
DEFAULT_1
100
AcDbLine
62
2
6
CENTER
10
146.3490010338
20
163.2341311557
11
146.3490010338
21
168.2342311557
0
LINE
5
59D
100
AcDbEntity
8
0
100
AcDbLine
62
7
6
CONTINUOUS
10
115.8874398408
20
119.4841311557
11
156.3252620143
21
119.4841311557
0
LINE
5
59E
100
AcDbEntity
8
0
100
AcDbLine
62
7
6
CONTINUOUS
10
200.8874398408
20
122.9841311557
11
169.3874398408
21
122.9841311557
0
LINE
5
59F
100
AcDbEntity
8
DEFAULT_1
100
AcDbLine
62
2
6
CENTER
10
151.8490010338
20
114.9841311557
11
151.8490010338
21
213.5341311557
0
LINE
5
5A0
100
AcDbEntity
8
DEFAULT_1
100
AcDbLine
62
2
6
CENTER
10
120.3874398408
20
125.4841311557
11
113.7874398408
21
125.4841311557
0
LINE
5
5A1
100
AcDbEntity
8
DEFAULT_1
100
AcDbLine
62
2
6
CENTER
10
120.3874398408
20
125.4841311557
11
126.9874398408
21
125.4841311557
0
LINE
5
5A2
100
AcDbEntity
8
0
100
AcDbLine
62
7
6
CONTINUOUS
10
157.3490010338
20
128.2341311557
11
146.3490010338
21
128.2341311557
0
LINE
5
5A3
100
AcDbEntity
8
DEFAULT_1
100
AcDbLine
62
2
6
CENTER
10
193.3874398408
20
128.9841311557
11
186.3374398408
21
128.9841311557
0
LINE
5
5A4
100
AcDbEntity
8
DEFAULT_1
100
AcDbLine
62
2
6
CENTER
10
186.3374398408
20
128.9841311557
11
183.3873398408
21
128.9841311557
0
LINE
5
5A5
100
AcDbEntity
8
DEFAULT_1
100
AcDbLine
62
2
6
CENTER
10
183.3874398408
20
128.9841311557
11
176.3374398408
21
128.9841311557
0
LINE
5
5A6
100
AcDbEntity
8
DEFAULT_1
100
AcDbLine
62
2
6
CENTER
10
193.3874398408
20
128.9841311557
11
200.4374398408
21
128.9841311557
0
LINE
5
5A7
100
AcDbEntity
8
0
100
AcDbLine
62
7
6
CONTINUOUS
10
118.8874398408
20
182.4841311557
11
115.8874398408
21
185.4841311557
0
LINE
5
5A8
100
AcDbEntity
8
DEFAULT_1
100
AcDbLine
62
2
6
CENTER
10
157.3490010338
20
163.2341311557
11
157.3490010338
21
158.2340311557
0
LINE
5
5A9
100
AcDbEntity
8
DEFAULT_1
100
AcDbLine
62
2
6
CENTER
10
157.3490010338
20
147.2341311557
11
157.3490010338
21
142.2340311557
0
LINE
5
5AA
100
AcDbEntity
8
DEFAULT_1
100
AcDbLine
62
2
6
CENTER
10
157.3490010338
20
131.2341311557
11
157.3490010338
21
126.2340311557
0
LINE
5
5AB
100
AcDbEntity
8
DEFAULT_1
100
AcDbLine
62
2
6
CENTER
10
157.3490010338
20
131.2341311557
11
157.3490010338
21
136.2342311557
0
LINE
5
5AC
100
AcDbEntity
8
DEFAULT_1
100
AcDbLine
62
2
6
CENTER
10
157.3490010338
20
147.2341311557
11
157.3490010338
21
152.2342311557
0
LINE
5
5AD
100
AcDbEntity
8
DEFAULT_1
100
AcDbLine
62
2
6
CENTER
10
157.3490010338
20
163.2341311557
11
157.3490010338
21
168.2342311557
0
LINE
5
5AE
100
AcDbEntity
8
0
100
AcDbLine
62
7
6
CONTINUOUS
10
115.8874398408
20
137.4841311557
11
118.8874398408
21
140.4841311557
0
LINE
5
5AF
100
AcDbEntity
8
0
100
AcDbLine
62
7
6
CONTINUOUS
10
156.3252620143
20
119.4841311557
11
169.3874398408
21
122.9841311557
0
LINE
5
5B0
100
AcDbEntity
8
DEFAULT_1
100
AcDbLine
62
2
6
CENTER
10
157.3490010338
20
131.2341311557
11
152.3489010338
21
131.2341311557
0
LINE
5
5B1
100
AcDbEntity
8
DEFAULT_1
100
AcDbLine
62
2
6
CENTER
10
146.3490010338
20
131.2341311557
11
141.3489010338
21
131.2341311557
0
LINE
5
5B2
100
AcDbEntity
8
DEFAULT_1
100
AcDbLine
62
2
6
CENTER
10
146.3490010338
20
131.2341311557
11
151.3491010338
21
131.2341311557
0
LINE
5
5B3
100
AcDbEntity
8
DEFAULT_1
100
AcDbLine
62
2
6
CENTER
10
157.3490010338
20
131.2341311557
11
162.3491010338
21
131.2341311557
0
LINE
5
5B4
100
AcDbEntity
8
0
100
AcDbLine
62
7
6
CONTINUOUS
10
173.8490010338
20
132.4841311557
11
169.8490010338
21
132.4841311557
0
LINE
5
5B5
100
AcDbEntity
8
0
100
AcDbLine
62
7
6
CONTINUOUS
10
133.8490010338
20
132.4841311557
11
129.8490010338
21
132.4841311557
0
LINE
5
5B6
100
AcDbEntity
8
DEFAULT_1
100
AcDbLine
62
2
6
CENTER
10
120.3874398408
20
133.4841311557
11
115.3873398408
21
133.4841311557
0
LINE
5
5B7
100
AcDbEntity
8
DEFAULT_1
100
AcDbLine
62
2
6
CENTER
10
120.3874398408
20
133.4841311557
11
125.3875398408
21
133.4841311557
0
LINE
5
5B8
100
AcDbEntity
8
0
100
AcDbLine
62
7
6
CONTINUOUS
10
255.3874398408
20
133.9841311557
11
260.8874398408
21
133.9841311557
0
LINE
5
5B9
100
AcDbEntity
8
0
100
AcDbLine
62
7
6
CONTINUOUS
10
146.3490010338
20
134.2341311557
11
157.3490010338
21
134.2341311557
0
LINE
5
5BA
100
AcDbEntity
8
DEFAULT_1
100
AcDbLine
62
2
6
CENTER
10
164.3490010338
20
186.4841311557
11
164.3490010338
21
181.4840311557
0
LINE
5
5BB
100
AcDbEntity
8
DEFAULT_1
100
AcDbLine
62
2
6
CENTER
10
164.3490010338
20
186.4841311557
11
164.3490010338
21
191.4842311557
0
LINE
5
5BC
100
AcDbEntity
8
DEFAULT_1
100
AcDbLine
62
2
6
CENTER
10
173.8490010338
20
135.4841311557
11
168.8489010338
21
135.4841311557
0
LINE
5
5BD
100
AcDbEntity
8
DEFAULT_1
100
AcDbLine
62
2
6
CENTER
10
168.8489010338
20
135.4841311557
11
164.8489010338
21
135.4841311557
0
LINE
5
5BE
100
AcDbEntity
8
DEFAULT_1
100
AcDbLine
62
2
6
CENTER
10
133.8490010338
20
135.4841311557
11
128.8489010338
21
135.4841311557
0
LINE
5
5BF
100
AcDbEntity
8
DEFAULT_1
100
AcDbLine
62
2
6
CENTER
10
128.8489010338
20
135.4841311557
11
124.8489010338
21
135.4841311557
0
LINE
5
5C0
100
AcDbEntity
8
DEFAULT_1
100
AcDbLine
62
2
6
CENTER
10
133.8490010338
20
135.4841311557
11
134.8491010338
21
135.4841311557
0
LINE
5
5C1
100
AcDbEntity
8
DEFAULT_1
100
AcDbLine
62
2
6
CENTER
10
134.8491010338
20
135.4841311557
11
138.8491010338
21
135.4841311557
0
LINE
5
5C2
100
AcDbEntity
8
DEFAULT_1
100
AcDbLine
62
2
6
CENTER
10
173.8490010338
20
135.4841311557
11
174.8491010338
21
135.4841311557
0
LINE
5
5C3
100
AcDbEntity
8
DEFAULT_1
100
AcDbLine
62
2
6
CENTER
10
174.8491010338
20
135.4841311557
11
178.8491010338
21
135.4841311557
0
LINE
5
5C4
100
AcDbEntity
8
0
100
AcDbLine
62
7
6
CONTINUOUS
10
227.7305855913
20
135.4841311557
11
231.0442940903
21
135.4841311557
0
LINE
5
5C5
100
AcDbEntity
8
0
100
AcDbLine
62
7
6
CONTINUOUS
10
210.5874398408
20
136.4841311557
11
205.8010380034
21
136.4841311557
0
LINE
5
5C6
100
AcDbEntity
8
0
100
AcDbLine
62
7
6
CONTINUOUS
10
218.5874398408
20
136.4841311557
11
226.7305855913
21
136.4841311557
0
LINE
5
5C7
100
AcDbEntity
8
0
100
AcDbLine
62
7
6
CONTINUOUS
10
232.0442940903
20
136.4841311557
11
237.3874398408
21
136.4841311557
0
LINE
5
5C8
100
AcDbEntity
8
0
100
AcDbLine
62
7
6
CONTINUOUS
10
245.3874398408
20
136.4841311557
11
252.8874398408
21
136.4841311557
0
LINE
5
5C9
100
AcDbEntity
8
0
100
AcDbLine
62
7
6
CONTINUOUS
10
129.8490010338
20
138.4841311557
11
133.8490010338
21
138.4841311557
0
LINE
5
5CA
100
AcDbEntity
8
0
100
AcDbLine
62
7
6
CONTINUOUS
10
169.8490010338
20
138.4841311557
11
173.8490010338
21
138.4841311557
0
LINE
5
5CB
100
AcDbEntity
8
DEFAULT_1
100
AcDbLine
62
2
6
CENTER
10
257.8874398408
20
139.4841311557
11
250.8374398408
21
139.4841311557
0
LINE
5
5CC
100
AcDbEntity
8
DEFAULT_1
100
AcDbLine
62
2
6
CENTER
10
229.3874398408
20
139.4841311557
11
222.3374398408
21
139.4841311557
0
LINE
5
5CD
100
AcDbEntity
8
DEFAULT_1
100
AcDbLine
62
2
6
CENTER
10
200.8874398408
20
139.4841311557
11
193.8374398408
21
139.4841311557
0
LINE
5
5CE
100
AcDbEntity
8
DEFAULT_1
100
AcDbLine
62
2
6
CENTER
10
200.8874398408
20
139.4841311557
11
207.9374398408
21
139.4841311557
0
LINE
5
5CF
100
AcDbEntity
8
DEFAULT_1
100
AcDbLine
62
2
6
CENTER
10
229.3874398408
20
139.4841311557
11
236.4374398408
21
139.4841311557
0
LINE
5
5D0
100
AcDbEntity
8
DEFAULT_1
100
AcDbLine
62
2
6
CENTER
10
257.8874398408
20
139.4841311557
11
264.9374398408
21
139.4841311557
0
LINE
5
5D1
100
AcDbEntity
8
DEFAULT_1
100
AcDbLine
62
2
6
CENTER
10
169.8490010338
20
158.9841311557
11
169.8490010338
21
153.9840311557
0
LINE
5
5D2
100
AcDbEntity
8
DEFAULT_1
100
AcDbLine
62
2
6
CENTER
10
169.8490010338
20
135.4841311557
11
169.8490010338
21
130.4840311557
0
LINE
5
5D3
100
AcDbEntity
8
DEFAULT_1
100
AcDbLine
62
2
6
CENTER
10
169.8490010338
20
135.4841311557
11
169.8490010338
21
140.4842311557
0
LINE
5
5D4
100
AcDbEntity
8
DEFAULT_1
100
AcDbLine
62
2
6
CENTER
10
169.8490010338
20
158.9841311557
11
169.8490010338
21
163.9842311557
0
LINE
5
5D5
100
AcDbEntity
8
0
100
AcDbLine
62
7
6
CONTINUOUS
10
210.5874398408
20
142.9841311557
11
218.5874398408
21
142.9841311557
0
LINE
5
5D6
100
AcDbEntity
8
0
100
AcDbLine
62
7
6
CONTINUOUS
10
237.3874398408
20
142.9841311557
11
245.3874398408
21
142.9841311557
0
LINE
5
5D7
100
AcDbEntity
8
0
100
AcDbLine
62
7
6
CONTINUOUS
10
157.3490010338
20
144.2341311557
11
146.3490010338
21
144.2341311557
0
LINE
5
5D8
100
AcDbEntity
8
DEFAULT_1
100
AcDbLine
62
2
6
CENTER
10
173.8490010338
20
158.9841311557
11
173.8490010338
21
153.9840311557
0
LINE
5
5D9
100
AcDbEntity
8
DEFAULT_1
100
AcDbLine
62
2
6
CENTER
10
173.8490010338
20
135.4841311557
11
173.8490010338
21
130.4840311557
0
LINE
5
5DA
100
AcDbEntity
8
DEFAULT_1
100
AcDbLine
62
2
6
CENTER
10
173.8490010338
20
135.4841311557
11
173.8490010338
21
140.4842311557
0
LINE
5
5DB
100
AcDbEntity
8
DEFAULT_1
100
AcDbLine
62
2
6
CENTER
10
173.8490010338
20
158.9841311557
11
173.8490010338
21
163.9842311557
0
LINE
5
5DC
100
AcDbEntity
8
DEFAULT_1
100
AcDbLine
62
2
6
CENTER
10
176.8874398408
20
193.9841311557
11
176.8874398408
21
186.9341311557
0
LINE
5
5DD
100
AcDbEntity
8
DEFAULT_1
100
AcDbLine
62
2
6
CENTER
10
176.8874398408
20
193.9841311557
11
176.8874398408
21
201.0341311557
0
LINE
5
5DE
100
AcDbEntity
8
DEFAULT_1
100
AcDbLine
62
2
6
CENTER
10
157.3490010338
20
147.2341311557
11
152.3489010338
21
147.2341311557
0
LINE
5
5DF
100
AcDbEntity
8
DEFAULT_1
100
AcDbLine
62
2
6
CENTER
10
146.3490010338
20
147.2341311557
11
141.3489010338
21
147.2341311557
0
LINE
5
5E0
100
AcDbEntity
8
DEFAULT_1
100
AcDbLine
62
2
6
CENTER
10
146.3490010338
20
147.2341311557
11
151.3491010338
21
147.2341311557
0
LINE
5
5E1
100
AcDbEntity
8
DEFAULT_1
100
AcDbLine
62
2
6
CENTER
10
157.3490010338
20
147.2341311557
11
162.3491010338
21
147.2341311557
0
LINE
5
5E2
100
AcDbEntity
8
0
100
AcDbLine
62
7
6
CONTINUOUS
10
146.3490010338
20
150.2341311557
11
157.3490010338
21
150.2341311557
0
LINE
5
5E3
100
AcDbEntity
8
DEFAULT_1
100
AcDbLine
62
2
6
CENTER
10
181.8874398408
20
193.9841311557
11
181.8874398408
21
188.9840311557
0
LINE
5
5E4
100
AcDbEntity
8
DEFAULT_1
100
AcDbLine
62
2
6
CENTER
10
181.8874398408
20
193.9841311557
11
181.8874398408
21
198.9842311557
0
LINE
5
5E5
100
AcDbEntity
8
DEFAULT_1
100
AcDbLine
62
2
6
CENTER
10
183.3874398408
20
128.9841311557
11
183.3874398408
21
121.9341311557
0
LINE
5
5E6
100
AcDbEntity
8
DEFAULT_1
100
AcDbLine
62
2
6
CENTER
10
183.3874398408
20
128.9841311557
11
183.3874398408
21
136.0341311557
0
LINE
5
5E7
100
AcDbEntity
8
0
100
AcDbLine
62
7
6
CONTINUOUS
10
245.3874398408
20
153.4841311557
11
213.3874398408
21
153.4841311557
0
LINE
5
5E8
100
AcDbEntity
8
0
100
AcDbLine
62
7
6
CONTINUOUS
10
173.8490010338
20
155.9841311557
11
169.8490010338
21
155.9841311557
0
LINE
5
5E9
100
AcDbEntity
8
0
100
AcDbLine
62
7
6
CONTINUOUS
10
133.8490010338
20
155.9841311557
11
129.8490010338
21
155.9841311557
0
LINE
5
5EA
100
AcDbEntity
8
DEFAULT_1
100
AcDbLine
62
2
6
CENTER
10
173.8490010338
20
158.9841311557
11
168.8489010338
21
158.9841311557
0
LINE
5
5EB
100
AcDbEntity
8
DEFAULT_1
100
AcDbLine
62
2
6
CENTER
10
168.8489010338
20
158.9841311557
11
164.8489010338
21
158.9841311557
0
LINE
5
5EC
100
AcDbEntity
8
DEFAULT_1
100
AcDbLine
62
2
6
CENTER
10
133.8490010338
20
158.9841311557
11
128.8489010338
21
158.9841311557
0
LINE
5
5ED
100
AcDbEntity
8
DEFAULT_1
100
AcDbLine
62
2
6
CENTER
10
128.8489010338
20
158.9841311557
11
124.8489010338
21
158.9841311557
0
LINE
5
5EE
100
AcDbEntity
8
DEFAULT_1
100
AcDbLine
62
2
6
CENTER
10
133.8490010338
20
158.9841311557
11
134.8491010338
21
158.9841311557
0
LINE
5
5EF
100
AcDbEntity
8
DEFAULT_1
100
AcDbLine
62
2
6
CENTER
10
134.8491010338
20
158.9841311557
11
138.8491010338
21
158.9841311557
0
LINE
5
5F0
100
AcDbEntity
8
DEFAULT_1
100
AcDbLine
62
2
6
CENTER
10
173.8490010338
20
158.9841311557
11
174.8491010338
21
158.9841311557
0
LINE
5
5F1
100
AcDbEntity
8
DEFAULT_1
100
AcDbLine
62
2
6
CENTER
10
174.8491010338
20
158.9841311557
11
178.8491010338
21
158.9841311557
0
LINE
5
5F2
100
AcDbEntity
8
DEFAULT_1
100
AcDbLine
62
2
6
CENTER
10
186.8874398408
20
193.9841311557
11
186.8874398408
21
186.9341311557
0
LINE
5
5F3
100
AcDbEntity
8
DEFAULT_1
100
AcDbLine
62
2
6
CENTER
10
186.8874398408
20
193.9841311557
11
186.8874398408
21
201.0341311557
0
LINE
5
5F4
100
AcDbEntity
8
DEFAULT_1
100
AcDbLine
62
2
6
CENTER
10
188.3874398408
20
128.9841311557
11
188.3874398408
21
123.9840311557
0
LINE
5
5F5
100
AcDbEntity
8
DEFAULT_1
100
AcDbLine
62
2
6
CENTER
10
188.3874398408
20
128.9841311557
11
188.3874398408
21
133.9842311557
0
LINE
5
5F6
100
AcDbEntity
8
0
100
AcDbLine
62
7
6
CONTINUOUS
10
157.3490010338
20
160.2341311557
11
146.3490010338
21
160.2341311557
0
LINE
5
5F7
100
AcDbEntity
8
DEFAULT_1
100
AcDbLine
62
2
6
CENTER
10
273.9864289579
20
161.4841311557
11
192.8042136650
21
161.4841311557
0
LINE
5
5F8
100
AcDbEntity
8
DEFAULT_1
100
AcDbLine
62
2
6
CENTER
10
164.3879334074
20
161.4841311557
11
103.6828678315
21
161.4841311557
0
LINE
5
5F9
100
AcDbEntity
8
DEFAULT_1
100
AcDbLine
62
2
6
CENTER
10
97.2659558390
20
161.4841311557
11
74.7018440933
21
161.4841311557
0
LINE
5
5FA
100
AcDbEntity
8
0
100
AcDbLine
62
7
6
CONTINUOUS
10
129.8490010338
20
161.9841311557
11
133.8490010338
21
161.9841311557
0
LINE
5
5FB
100
AcDbEntity
8
0
100
AcDbLine
62
7
6
CONTINUOUS
10
169.8490010338
20
161.9841311557
11
173.8490010338
21
161.9841311557
0
LINE
5
5FC
100
AcDbEntity
8
DEFAULT_1
100
AcDbLine
62
2
6
CENTER
10
157.3490010338
20
163.2341311557
11
152.3489010338
21
163.2341311557
0
LINE
5
5FD
100
AcDbEntity
8
DEFAULT_1
100
AcDbLine
62
2
6
CENTER
10
146.3490010338
20
163.2341311557
11
141.3489010338
21
163.2341311557
0
LINE
5
5FE
100
AcDbEntity
8
DEFAULT_1
100
AcDbLine
62
2
6
CENTER
10
146.3490010338
20
163.2341311557
11
151.3491010338
21
163.2341311557
0
LINE
5
5FF
100
AcDbEntity
8
DEFAULT_1
100
AcDbLine
62
2
6
CENTER
10
157.3490010338
20
163.2341311557
11
162.3491010338
21
163.2341311557
0
LINE
5
600
100
AcDbEntity
8
DEFAULT_1
100
AcDbLine
62
2
6
CENTER
10
193.3874398408
20
128.9841311557
11
193.3874398408
21
121.9341311557
0
LINE
5
601
100
AcDbEntity
8
DEFAULT_1
100
AcDbLine
62
2
6
CENTER
10
193.3874398408
20
128.9841311557
11
193.3874398408
21
136.0341311557
0
LINE
5
602
100
AcDbEntity
8
0
100
AcDbLine
62
7
6
CONTINUOUS
10
146.3490010338
20
166.2341311557
11
157.3490010338
21
166.2341311557
0
LINE
5
603
100
AcDbEntity
8
0
100
AcDbLine
62
7
6
CONTINUOUS
10
213.3874398408
20
169.4841311557
11
245.3874398408
21
169.4841311557
0
LINE
5
604
100
AcDbEntity
8
0
100
AcDbLine
62
7
6
CONTINUOUS
10
226.7305855913
20
136.4841311557
11
227.7305855913
21
135.4841311557
0
LINE
5
605
100
AcDbEntity
8
DEFAULT_1
100
AcDbLine
62
2
6
CENTER
10
200.8874398408
20
183.4841311557
11
200.8874398408
21
176.4341311557
0
LINE
5
606
100
AcDbEntity
8
DEFAULT_1
100
AcDbLine
62
2
6
CENTER
10
200.8874398408
20
139.4841311557
11
200.8874398408
21
132.4341311557
0
LINE
5
607
100
AcDbEntity
8
DEFAULT_1
100
AcDbLine
62
2
6
CENTER
10
200.8874398408
20
139.4841311557
11
200.8874398408
21
146.5341311557
0
LINE
5
608
100
AcDbEntity
8
DEFAULT_1
100
AcDbLine
62
2
6
CENTER
10
200.8874398408
20
183.4841311557
11
200.8874398408
21
190.5341311557
0
LINE
5
609
100
AcDbEntity
8
0
100
AcDbLine
62
7
6
CONTINUOUS
10
227.7305855913
20
187.4841311557
11
226.7305855913
21
186.4841311557
0
LINE
5
60A
100
AcDbEntity
8
0
100
AcDbLine
62
7
6
CONTINUOUS
10
210.5874398408
20
179.9841311557
11
218.5874398408
21
179.9841311557
0
LINE
5
60B
100
AcDbEntity
8
0
100
AcDbLine
62
7
6
CONTINUOUS
10
237.3874398408
20
179.9841311557
11
245.3874398408
21
179.9841311557
0
LINE
5
60C
100
AcDbEntity
8
0
100
AcDbLine
62
7
6
CONTINUOUS
10
139.3490010338
20
181.4841311557
11
164.3490010338
21
181.4841311557
0
LINE
5
60D
100
AcDbEntity
8
0
100
AcDbLine
62
7
6
CONTINUOUS
10
209.3874398408
20
157.4841311557
11
209.3874398408
21
165.4841311557
0
LINE
5
60E
100
AcDbEntity
8
0
100
AcDbLine
62
7
6
CONTINUOUS
10
210.5874398408
20
186.4841311557
11
210.5874398408
21
179.9841311557
0
LINE
5
60F
100
AcDbEntity
8
0
100
AcDbLine
62
7
6
CONTINUOUS
10
210.5874398408
20
136.4841311557
11
210.5874398408
21
142.9841311557
0
LINE
5
610
100
AcDbEntity
8
0
100
AcDbLine
62
7
6
CONTINUOUS
10
205.8010380034
20
136.4841311557
11
200.8874398408
21
122.9841311557
0
LINE
5
611
100
AcDbEntity
8
DEFAULT_1
100
AcDbLine
62
2
6
CENTER
10
257.8874398408
20
183.4841311557
11
250.8374398408
21
183.4841311557
0
LINE
5
612
100
AcDbEntity
8
DEFAULT_1
100
AcDbLine
62
2
6
CENTER
10
229.3874398408
20
183.4841311557
11
222.3374398408
21
183.4841311557
0
LINE
5
613
100
AcDbEntity
8
DEFAULT_1
100
AcDbLine
62
2
6
CENTER
10
200.8874398408
20
183.4841311557
11
193.8374398408
21
183.4841311557
0
LINE
5
614
100
AcDbEntity
8
DEFAULT_1
100
AcDbLine
62
2
6
CENTER
10
200.8874398408
20
183.4841311557
11
207.9374398408
21
183.4841311557
0
LINE
5
615
100
AcDbEntity
8
DEFAULT_1
100
AcDbLine
62
2
6
CENTER
10
229.3874398408
20
183.4841311557
11
236.4374398408
21
183.4841311557
0
LINE
5
616
100
AcDbEntity
8
DEFAULT_1
100
AcDbLine
62
2
6
CENTER
10
257.8874398408
20
183.4841311557
11
264.9374398408
21
183.4841311557
0
LINE
5
617
100
AcDbEntity
8
0
100
AcDbLine
62
7
6
CONTINUOUS
10
252.8874398408
20
186.4841311557
11
245.3874398408
21
186.4841311557
0
LINE
5
618
100
AcDbEntity
8
0
100
AcDbLine
62
7
6
CONTINUOUS
10
237.3874398408
20
186.4841311557
11
232.0442940903
21
186.4841311557
0
LINE
5
619
100
AcDbEntity
8
0
100
AcDbLine
62
7
6
CONTINUOUS
10
226.7305855913
20
186.4841311557
11
218.5874398408
21
186.4841311557
0
LINE
5
61A
100
AcDbEntity
8
DEFAULT_1
100
AcDbLine
62
2
6
CENTER
10
164.3490010338
20
186.4841311557
11
159.3489010338
21
186.4841311557
0
LINE
5
61B
100
AcDbEntity
8
DEFAULT_1
100
AcDbLine
62
2
6
CENTER
10
139.3490010338
20
186.4841311557
11
82.8557177641
21
186.4841311557
0
LINE
5
61C
100
AcDbEntity
8
DEFAULT_1
100
AcDbLine
62
2
6
CENTER
10
139.3490010338
20
186.4841311557
11
144.3491010338
21
186.4841311557
0
LINE
5
61D
100
AcDbEntity
8
DEFAULT_1
100
AcDbLine
62
2
6
CENTER
10
164.3490010338
20
186.4841311557
11
169.3491010338
21
186.4841311557
0
LINE
5
61E
100
AcDbEntity
8
0
100
AcDbLine
62
7
6
CONTINUOUS
10
205.8010380034
20
186.4841311557
11
210.5874398408
21
186.4841311557
0
LINE
5
61F
100
AcDbEntity
8
0
100
AcDbLine
62
7
6
CONTINUOUS
10
231.0442940903
20
187.4841311557
11
227.7305855913
21
187.4841311557
0
LINE
5
620
100
AcDbEntity
8
0
100
AcDbLine
62
7
6
CONTINUOUS
10
252.8874398408
20
136.4841311557
11
255.3874398408
21
133.9841311557
0
LINE
5
621
100
AcDbEntity
8
0
100
AcDbLine
62
7
6
CONTINUOUS
10
200.8874398408
20
199.9841311557
11
205.8010380034
21
186.4841311557
0
LINE
5
622
100
AcDbEntity
8
0
100
AcDbLine
62
7
6
CONTINUOUS
10
218.5874398408
20
142.9841311557
11
218.5874398408
21
136.4841311557
0
LINE
5
623
100
AcDbEntity
8
0
100
AcDbLine
62
7
6
CONTINUOUS
10
218.5874398408
20
179.9841311557
11
218.5874398408
21
186.4841311557
0
LINE
5
624
100
AcDbEntity
8
0
100
AcDbLine
62
7
6
CONTINUOUS
10
252.8874398408
20
186.4841311557
11
255.3874398408
21
188.9841311557
0
LINE
5
625
100
AcDbEntity
8
0
100
AcDbLine
62
7
6
CONTINUOUS
10
255.3874398408
20
188.9841311557
11
260.8874398408
21
188.9841311557
0
LINE
5
626
100
AcDbEntity
8
DEFAULT_1
100
AcDbLine
62
2
6
CENTER
10
120.3874398408
20
189.4841311557
11
115.3873398408
21
189.4841311557
0
LINE
5
627
100
AcDbEntity
8
DEFAULT_1
100
AcDbLine
62
2
6
CENTER
10
120.3874398408
20
189.4841311557
11
125.3875398408
21
189.4841311557
0
LINE
5
628
100
AcDbEntity
8
0
100
AcDbLine
62
7
6
CONTINUOUS
10
164.3490010338
20
191.4841311557
11
139.3490010338
21
191.4841311557
0
LINE
5
629
100
AcDbEntity
8
DEFAULT_1
100
AcDbLine
62
2
6
CENTER
10
186.8874398408
20
193.9841311557
11
179.8374398408
21
193.9841311557
0
LINE
5
62A
100
AcDbEntity
8
DEFAULT_1
100
AcDbLine
62
2
6
CENTER
10
179.8374398408
20
193.9841311557
11
176.8873398408
21
193.9841311557
0
LINE
5
62B
100
AcDbEntity
8
DEFAULT_1
100
AcDbLine
62
2
6
CENTER
10
176.8874398408
20
193.9841311557
11
169.8374398408
21
193.9841311557
0
LINE
5
62C
100
AcDbEntity
8
DEFAULT_1
100
AcDbLine
62
2
6
CENTER
10
186.8874398408
20
193.9841311557
11
193.9374398408
21
193.9841311557
0
LINE
5
62D
100
AcDbEntity
8
0
100
AcDbLine
62
7
6
CONTINUOUS
10
169.3874398408
20
199.9841311557
11
156.3252620143
21
203.4841311557
0
LINE
5
62E
100
AcDbEntity
8
DEFAULT_1
100
AcDbLine
62
2
6
CENTER
10
120.3874398408
20
197.4841311557
11
113.7874398408
21
197.4841311557
0
LINE
5
62F
100
AcDbEntity
8
DEFAULT_1
100
AcDbLine
62
2
6
CENTER
10
120.3874398408
20
197.4841311557
11
126.9874398408
21
197.4841311557
0
LINE
5
630
100
AcDbEntity
8
0
100
AcDbLine
62
7
6
CONTINUOUS
10
169.3874398408
20
199.9841311557
11
200.8874398408
21
199.9841311557
0
LINE
5
631
100
AcDbEntity
8
DEFAULT_1
100
AcDbLine
62
2
6
CENTER
10
229.3874398408
20
183.4841311557
11
229.3874398408
21
176.4341311557
0
LINE
5
632
100
AcDbEntity
8
DEFAULT_1
100
AcDbLine
62
2
6
CENTER
10
229.3874398408
20
139.4841311557
11
229.3874398408
21
132.4341311557
0
LINE
5
633
100
AcDbEntity
8
DEFAULT_1
100
AcDbLine
62
2
6
CENTER
10
229.3874398408
20
139.4841311557
11
229.3874398408
21
146.5341311557
0
LINE
5
634
100
AcDbEntity
8
DEFAULT_1
100
AcDbLine
62
2
6
CENTER
10
229.3874398408
20
183.4841311557
11
229.3874398408
21
190.5341311557
0
LINE
5
635
100
AcDbEntity
8
0
100
AcDbLine
62
7
6
CONTINUOUS
10
115.8874398408
20
203.4841311557
11
156.3252620143
21
203.4841311557
0
LINE
5
636
100
AcDbEntity
8
0
100
AcDbLine
62
7
6
CONTINUOUS
10
237.3874398408
20
186.4841311557
11
237.3874398408
21
179.9841311557
0
LINE
5
637
100
AcDbEntity
8
0
100
AcDbLine
62
7
6
CONTINUOUS
10
237.3874398408
20
136.4841311557
11
237.3874398408
21
142.9841311557
0
LINE
5
638
100
AcDbEntity
8
0
100
AcDbLine
62
7
6
CONTINUOUS
10
232.0442940903
20
186.4841311557
11
231.0442940903
21
187.4841311557
0
LINE
5
639
100
AcDbEntity
8
0
100
AcDbLine
62
7
6
CONTINUOUS
10
231.0442940903
20
135.4841311557
11
232.0442940903
21
136.4841311557
0
LINE
5
63A
100
AcDbEntity
8
0
100
AcDbLine
62
7
6
CONTINUOUS
10
245.3874398408
20
142.9841311557
11
245.3874398408
21
136.4841311557
0
LINE
5
63B
100
AcDbEntity
8
0
100
AcDbLine
62
7
6
CONTINUOUS
10
245.3874398408
20
179.9841311557
11
245.3874398408
21
186.4841311557
0
LINE
5
63C
100
AcDbEntity
8
0
100
AcDbLine
62
7
6
CONTINUOUS
10
249.3874398408
20
165.4841311557
11
249.3874398408
21
157.4841311557
0
LINE
5
63D
100
AcDbEntity
8
DEFAULT_1
100
AcDbLine
62
2
6
CENTER
10
257.8874398408
20
183.4841311557
11
257.8874398408
21
176.4341311557
0
LINE
5
63E
100
AcDbEntity
8
DEFAULT_1
100
AcDbLine
62
2
6
CENTER
10
257.8874398408
20
139.4841311557
11
257.8874398408
21
132.4341311557
0
LINE
5
63F
100
AcDbEntity
8
DEFAULT_1
100
AcDbLine
62
2
6
CENTER
10
257.8874398408
20
139.4841311557
11
257.8874398408
21
146.5341311557
0
LINE
5
640
100
AcDbEntity
8
DEFAULT_1
100
AcDbLine
62
2
6
CENTER
10
257.8874398408
20
183.4841311557
11
257.8874398408
21
190.5341311557
0
LINE
5
641
100
AcDbEntity
8
0
100
AcDbLine
62
7
6
CONTINUOUS
10
260.8874398408
20
133.9841311557
11
263.3874398408
21
136.4841311557
0
LINE
5
642
100
AcDbEntity
8
0
100
AcDbLine
62
7
6
CONTINUOUS
10
260.8874398408
20
188.9841311557
11
263.3874398408
21
186.4841311557
0
LINE
5
643
100
AcDbEntity
8
0
100
AcDbLine
62
7
6
CONTINUOUS
10
263.3874398408
20
136.4841311557
11
263.3874398408
21
142.4841311557
0
LINE
5
644
100
AcDbEntity
8
0
100
AcDbLine
62
7
6
CONTINUOUS
10
263.3874398408
20
180.5441311557
11
263.3874398408
21
186.4841311557
0
LINE
5
645
100
AcDbEntity
8
0
100
AcDbLine
62
7
6
CONTINUOUS
10
266.8874398408
20
149.9899053775
11
266.8874398408
21
173.0383569339
0
LINE
5
646
100
AcDbEntity
8
0
100
AcDbLine
62
7
6
CONTINUOUS
10
263.3874398408
20
142.4841311557
11
266.8874398408
21
149.9899053775
0
LINE
5
647
100
AcDbEntity
8
0
100
AcDbLine
62
7
6
CONTINUOUS
10
266.8874398408
20
173.0383569339
11
263.3874398408
21
180.5441311557
0
LINE
5
648
100
AcDbEntity
8
0
100
AcDbLine
62
7
6
CONTINUOUS
10
395.6976119066
20
119.4841311557
11
398.1976119066
21
119.4841311557
0
LINE
5
649
100
AcDbEntity
8
0
100
AcDbLine
62
7
6
CONTINUOUS
10
395.6976119066
20
137.4841311557
11
398.1976119066
21
137.4841311557
0
LINE
5
64A
100
AcDbEntity
8
0
100
AcDbLine
62
7
6
CONTINUOUS
10
398.1976119066
20
140.4841311557
11
395.6976119066
21
140.4841311557
0
LINE
5
64B
100
AcDbEntity
8
0
100
AcDbLine
62
7
6
CONTINUOUS
10
395.6976119066
20
119.4841311557
11
395.6976119066
21
203.4841311557
0
LINE
5
64C
100
AcDbEntity
8
0
100
AcDbLine
62
7
6
CONTINUOUS
10
398.1976119066
20
119.4841311557
11
398.1976119066
21
203.4841311557
0
LINE
5
64D
100
AcDbEntity
8
0
100
AcDbLine
62
7
6
CONTINUOUS
10
398.1976119066
20
182.4841311557
11
395.6976119066
21
182.4841311557
0
LINE
5
64E
100
AcDbEntity
8
0
100
AcDbLine
62
7
6
CONTINUOUS
10
395.6976119066
20
185.4841311557
11
398.1976119066
21
185.4841311557
0
LINE
5
64F
100
AcDbEntity
8
0
100
AcDbLine
62
7
6
CONTINUOUS
10
395.6976119066
20
203.4841311557
11
398.1976119066
21
203.4841311557
0
ARC
5
650
100
AcDbEntity
8
0
100
AcDbCircle
62
7
6
CONTINUOUS
10
245.3874398408
20
165.4841311557
40
4.0000000000
100
AcDbArc
50
0.0000000000
51
90.0000000000
0
ARC
5
651
100
AcDbEntity
8
0
100
AcDbCircle
62
7
6
CONTINUOUS
10
245.3874398408
20
157.4841311557
40
4.0000000000
100
AcDbArc
50
270.0000000000
51
360.0000000000
0
ARC
5
652
100
AcDbEntity
8
0
100
AcDbCircle
62
7
6
CONTINUOUS
10
213.3874398408
20
165.4841311557
40
4.0000000000
100
AcDbArc
50
90.0000000000
51
180.0000000000
0
ARC
5
653
100
AcDbEntity
8
0
100
AcDbCircle
62
7
6
CONTINUOUS
10
213.3874398408
20
157.4841311557
40
4.0000000000
100
AcDbArc
50
180.0000000000
51
270.0000000000
0
ARC
5
654
100
AcDbEntity
8
0
100
AcDbCircle
62
7
6
CONTINUOUS
10
157.3490010338
20
163.2341311557
40
3.0000000000
100
AcDbArc
50
270.0000000000
51
90.0000000000
0
ARC
5
655
100
AcDbEntity
8
0
100
AcDbCircle
62
7
6
CONTINUOUS
10
146.3490010338
20
163.2341311557
40
3.0000000000
100
AcDbArc
50
90.0000000000
51
270.0000000000
0
ARC
5
656
100
AcDbEntity
8
0
100
AcDbCircle
62
7
6
CONTINUOUS
10
157.3490010338
20
147.2341311557
40
3.0000000000
100
AcDbArc
50
270.0000000000
51
90.0000000000
0
ARC
5
657
100
AcDbEntity
8
0
100
AcDbCircle
62
7
6
CONTINUOUS
10
146.3490010338
20
147.2341311557
40
3.0000000000
100
AcDbArc
50
90.0000000000
51
270.0000000000
0
ARC
5
658
100
AcDbEntity
8
0
100
AcDbCircle
62
7
6
CONTINUOUS
10
146.3490010338
20
131.2341311557
40
3.0000000000
100
AcDbArc
50
90.0000000000
51
270.0000000000
0
ARC
5
659
100
AcDbEntity
8
0
100
AcDbCircle
62
7
6
CONTINUOUS
10
157.3490010338
20
131.2341311557
40
3.0000000000
100
AcDbArc
50
270.0000000000
51
90.0000000000
0
ARC
5
65A
100
AcDbEntity
8
0
100
AcDbCircle
62
7
6
CONTINUOUS
10
133.8490010338
20
135.4841311557
40
3.0000000000
100
AcDbArc
50
270.0000000000
51
90.0000000000
0
ARC
5
65B
100
AcDbEntity
8
0
100
AcDbCircle
62
7
6
CONTINUOUS
10
129.8490010338
20
135.4841311557
40
3.0000000000
100
AcDbArc
50
90.0000000000
51
270.0000000000
0
ARC
5
65C
100
AcDbEntity
8
0
100
AcDbCircle
62
7
6
CONTINUOUS
10
129.8490010338
20
158.9841311557
40
3.0000000000
100
AcDbArc
50
90.0000000000
51
270.0000000000
0
ARC
5
65D
100
AcDbEntity
8
0
100
AcDbCircle
62
7
6
CONTINUOUS
10
133.8490010338
20
158.9841311557
40
3.0000000000
100
AcDbArc
50
270.0000000000
51
90.0000000000
0
ARC
5
65E
100
AcDbEntity
8
0
100
AcDbCircle
62
7
6
CONTINUOUS
10
169.8490010338
20
158.9841311557
40
3.0000000000
100
AcDbArc
50
90.0000000000
51
270.0000000000
0
ARC
5
65F
100
AcDbEntity
8
0
100
AcDbCircle
62
7
6
CONTINUOUS
10
173.8490010338
20
158.9841311557
40
3.0000000000
100
AcDbArc
50
270.0000000000
51
90.0000000000
0
ARC
5
660
100
AcDbEntity
8
0
100
AcDbCircle
62
7
6
CONTINUOUS
10
169.8490010338
20
135.4841311557
40
3.0000000000
100
AcDbArc
50
90.0000000000
51
270.0000000000
0
ARC
5
661
100
AcDbEntity
8
0
100
AcDbCircle
62
7
6
CONTINUOUS
10
173.8490010338
20
135.4841311557
40
3.0000000000
100
AcDbArc
50
270.0000000000
51
90.0000000000
0
ARC
5
662
100
AcDbEntity
8
0
100
AcDbCircle
62
7
6
CONTINUOUS
10
164.3490010338
20
186.4841311557
40
5.0000000000
100
AcDbArc
50
270.0000000000
51
90.0000000000
0
ARC
5
663
100
AcDbEntity
8
0
100
AcDbCircle
62
7
6
CONTINUOUS
10
139.3490010338
20
186.4841311557
40
5.0000000000
100
AcDbArc
50
90.0000000000
51
270.0000000000
0
CIRCLE
5
664
100
AcDbEntity
8
0
100
AcDbCircle
62
7
6
CONTINUOUS
10
181.8874398408
20
193.9841311557
40
1.5000000000
0
CIRCLE
5
665
100
AcDbEntity
8
0
100
AcDbCircle
62
7
6
CONTINUOUS
10
188.3874398408
20
128.9841311557
40
1.5000000000
0
CIRCLE
5
666
100
AcDbEntity
8
0
100
AcDbCircle
62
7
6
CONTINUOUS
10
193.3874398408
20
128.9841311557
40
2.0500000000
0
CIRCLE
5
667
100
AcDbEntity
8
0
100
AcDbCircle
62
7
6
CONTINUOUS
10
183.3874398408
20
128.9841311557
40
2.0500000000
0
CIRCLE
5
668
100
AcDbEntity
8
0
100
AcDbCircle
62
7
6
CONTINUOUS
10
176.8874398408
20
193.9841311557
40
2.0500000000
0
CIRCLE
5
669
100
AcDbEntity
8
0
100
AcDbCircle
62
7
6
CONTINUOUS
10
186.8874398408
20
193.9841311557
40
2.0500000000
0
CIRCLE
5
66A
100
AcDbEntity
8
0
100
AcDbCircle
62
7
6
CONTINUOUS
10
120.3874398408
20
133.4841311557
40
1.5000000000
0
CIRCLE
5
66B
100
AcDbEntity
8
0
100
AcDbCircle
62
7
6
CONTINUOUS
10
120.3874398408
20
189.4841311557
40
1.5000000000
0
CIRCLE
5
66C
100
AcDbEntity
8
0
100
AcDbCircle
62
7
6
CONTINUOUS
10
120.3874398408
20
125.4841311557
40
1.6000000000
0
CIRCLE
5
66D
100
AcDbEntity
8
0
100
AcDbCircle
62
7
6
CONTINUOUS
10
120.3874398408
20
197.4841311557
40
1.6000000000
0
CIRCLE
5
66E
100
AcDbEntity
8
0
100
AcDbCircle
62
7
6
CONTINUOUS
10
200.8874398408
20
139.4841311557
40
2.0500000000
0
CIRCLE
5
66F
100
AcDbEntity
8
0
100
AcDbCircle
62
7
6
CONTINUOUS
10
200.8874398408
20
183.4841311557
40
2.0500000000
0
CIRCLE
5
670
100
AcDbEntity
8
0
100
AcDbCircle
62
7
6
CONTINUOUS
10
229.3874398408
20
183.4841311557
40
2.0500000000
0
CIRCLE
5
671
100
AcDbEntity
8
0
100
AcDbCircle
62
7
6
CONTINUOUS
10
229.3874398408
20
139.4841311557
40
2.0500000000
0
CIRCLE
5
672
100
AcDbEntity
8
0
100
AcDbCircle
62
7
6
CONTINUOUS
10
257.8874398408
20
183.4841311557
40
2.0500000000
0
CIRCLE
5
673
100
AcDbEntity
8
0
100
AcDbCircle
62
7
6
CONTINUOUS
10
257.8874398408
20
139.4841311557
40
2.0500000000
0
ENDSEC
0
SECTION
2
OBJECTS
0
DICTIONARY
5
674
100
AcDbDictionary
3
ACAD_GROUP
350
675
3
ACAD_MLINESTYLE
350
676
0
DICTIONARY
5
675
102
{ACAD_REACTORS
330
674
102
}
100
AcDbDictionary
0
DICTIONARY
5
676
102
{ACAD_REACTORS
330
674
102
}
100
AcDbDictionary
3
STANDARD
350
677
0
MLINESTYLE
5
677
102
{ACAD_REACTORS
330
676
102
}
100
AcDbMlineStyle
2
STANDARD
70
0
3

62
256
51
90.0
52
90.0
71
2
49
0.5
62
256
6
BYLAYER
49
-0.5
62
256
6
BYLAYER
0
ENDSEC
0
EOF
