  0
SECTION
  2
HEADER
  9
$ACADVER
  1
AC1015
  9
$ACADMAINTVER
 70
     6
  9
$DWGCODEPAGE
  3
ANSI_1252
  9
$INSBASE
 10
0.0
 20
0.0
 30
0.0
  9
$EXTMIN
 10
0.0
 20
0.0
 30
0.0
  9
$EXTMAX
 10
420.0
 20
297.0
 30
0.0
  9
$LIMMIN
 10
0.0
 20
0.0
  9
$LIMMAX
 10
420.0
 20
297.0
  9
$ORTHOMODE
 70
     0
  9
$REGENMODE
 70
     1
  9
$FILLMODE
 70
     1
  9
$QTEXTMODE
 70
     0
  9
$MIRRTEXT
 70
     1
  9
$LTSCALE
 40
1.0
  9
$ATTMODE
 70
     1
  9
$TEXTSIZE
 40
3.5
  9
$TRACEWID
 40
1.0
  9
$TEXTSTYLE
  7
Standard
  9
$CLAYER
  8
0
  9
$CELTYPE
  6
ByLayer
  9
$CECOLOR
 62
   256
  9
$CELTSCALE
 40
1.0
  9
$DISPSILH
 70
     0
  9
$DIMSCALE
 40
1.0
  9
$DIMASZ
 40
3.302
  9
$DIMEXO
 40
1.0
  9
$DIMDLI
 40
3.75
  9
$DIMRND
 40
0.0
  9
$DIMDLE
 40
0.0
  9
$DIMEXE
 40
1.0
  9
$DIMTP
 40
0.0
  9
$DIMTM
 40
0.0
  9
$DIMTXT
 40
3.5
  9
$DIMCEN
 40
2.5
  9
$DIMTSZ
 40
0.0
  9
$DIMTOL
 70
     0
  9
$DIMLIM
 70
     0
  9
$DIMTIH
 70
     1
  9
$DIMTOH
 70
     1
  9
$DIMSE1
 70
     0
  9
$DIMSE2
 70
     0
  9
$DIMTAD
 70
     1
  9
$DIMZIN
 70
     0
  9
$DIMBLK
  1

  9
$DIMASO
 70
     1
  9
$DIMSHO
 70
     1
  9
$DIMPOST
  1

  9
$DIMAPOST
  1

  9
$DIMALT
 70
     0
  9
$DIMALTD
 70
     3
  9
$DIMALTF
 40
0.0393700787
  9
$DIMLFAC
 40
1.0
  9
$DIMTOFL
 70
     1
  9
$DIMTVP
 40
0.0
  9
$DIMTIX
 70
     0
  9
$DIMSOXD
 70
     0
  9
$DIMSAH
 70
     0
  9
$DIMBLK1
  1

  9
$DIMBLK2
  1

  9
$DIMSTYLE
  2
ISO-25
  9
$DIMCLRD
 70
     0
  9
$DIMCLRE
 70
     0
  9
$DIMCLRT
 70
     0
  9
$DIMTFAC
 40
1.0
  9
$DIMGAP
 40
1.524
  9
$DIMJUST
 70
     0
  9
$DIMSD1
 70
     0
  9
$DIMSD2
 70
     0
  9
$DIMTOLJ
 70
     0
  9
$DIMTZIN
 70
     0
  9
$DIMALTZ
 70
     0
  9
$DIMALTTZ
 70
     0
  9
$DIMUPT
 70
     0
  9
$DIMDEC
 70
     2
  9
$DIMTDEC
 70
     2
  9
$DIMALTU
 70
     2
  9
$DIMALTTD
 70
     3
  9
$DIMTXSTY
  7
Standard
  9
$DIMAUNIT
 70
     0
  9
$DIMADEC
 70
     2
  9
$DIMALTRND
 40
0.0
  9
$DIMAZIN
 70
     0
  9
$DIMDSEP
 70
    44
  9
$DIMATFIT
 70
     3
  9
$DIMFRAC
 70
     0
  9
$DIMLDRBLK
  1

  9
$DIMLUNIT
 70
     2
  9
$DIMLWD
 70
    -2
  9
$DIMLWE
 70
    -2
  9
$DIMTMOVE
 70
     0
  9
$LUNITS
 70
     2
  9
$LUPREC
 70
     2
  9
$SKETCHINC
 40
1.0
  9
$FILLETRAD
 40
10.0
  9
$AUNITS
 70
     0
  9
$AUPREC
 70
     2
  9
$MENU
  1
.
  9
$ELEVATION
 40
0.0
  9
$PELEVATION
 40
0.0
  9
$THICKNESS
 40
0.0
  9
$LIMCHECK
 70
     0
  9
$CHAMFERA
 40
0.0
  9
$CHAMFERB
 40
0.0
  9
$CHAMFERC
 40
0.0
  9
$CHAMFERD
 40
0.0
  9
$SKPOLY
 70
     0
  9
$TDCREATE
 40
2459634.132493252
  9
$TDUCREATE
 40
2459634.090826585
  9
$TDUPDATE
 40
2459634.132496979
  9
$TDUUPDATE
 40
2459634.090830313
  9
$TDINDWG
 40
0.0000000116
  9
$TDUSRTIMER
 40
0.0000000116
  9
$USRTIMER
 70
     1
  9
$ANGBASE
 50
0.0
  9
$ANGDIR
 70
     0
  9
$PDMODE
 70
     0
  9
$PDSIZE
 40
-1.0
  9
$PLINEWID
 40
0.0
  9
$SPLFRAME
 70
     0
  9
$SPLINETYPE
 70
     6
  9
$SPLINESEGS
 70
     8
  9
$HANDSEED
  5
220
  9
$SURFTAB1
 70
     6
  9
$SURFTAB2
 70
     6
  9
$SURFTYPE
 70
     6
  9
$SURFU
 70
     6
  9
$SURFV
 70
     6
  9
$UCSBASE
  2

  9
$UCSNAME
  2

  9
$UCSORG
 10
0.0
 20
0.0
 30
0.0
  9
$UCSXDIR
 10
1.0
 20
0.0
 30
0.0
  9
$UCSYDIR
 10
0.0
 20
1.0
 30
0.0
  9
$UCSORTHOREF
  2

  9
$UCSORTHOVIEW
 70
     0
  9
$UCSORGTOP
 10
0.0
 20
0.0
 30
0.0
  9
$UCSORGBOTTOM
 10
0.0
 20
0.0
 30
0.0
  9
$UCSORGLEFT
 10
0.0
 20
0.0
 30
0.0
  9
$UCSORGRIGHT
 10
0.0
 20
0.0
 30
0.0
  9
$UCSORGFRONT
 10
0.0
 20
0.0
 30
0.0
  9
$UCSORGBACK
 10
0.0
 20
0.0
 30
0.0
  9
$PUCSBASE
  2

  9
$PUCSNAME
  2

  9
$PUCSORG
 10
0.0
 20
0.0
 30
0.0
  9
$PUCSXDIR
 10
1.0
 20
0.0
 30
0.0
  9
$PUCSYDIR
 10
0.0
 20
1.0
 30
0.0
  9
$PUCSORTHOREF
  2

  9
$PUCSORTHOVIEW
 70
     0
  9
$PUCSORGTOP
 10
0.0
 20
0.0
 30
0.0
  9
$PUCSORGBOTTOM
 10
0.0
 20
0.0
 30
0.0
  9
$PUCSORGLEFT
 10
0.0
 20
0.0
 30
0.0
  9
$PUCSORGRIGHT
 10
0.0
 20
0.0
 30
0.0
  9
$PUCSORGFRONT
 10
0.0
 20
0.0
 30
0.0
  9
$PUCSORGBACK
 10
0.0
 20
0.0
 30
0.0
  9
$USERI1
 70
     0
  9
$USERI2
 70
     0
  9
$USERI3
 70
     0
  9
$USERI4
 70
     0
  9
$USERI5
 70
     0
  9
$USERR1
 40
0.0
  9
$USERR2
 40
0.0
  9
$USERR3
 40
0.0
  9
$USERR4
 40
0.0
  9
$USERR5
 40
0.0
  9
$WORLDVIEW
 70
     1
  9
$SHADEDGE
 70
     3
  9
$SHADEDIF
 70
    70
  9
$TILEMODE
 70
     1
  9
$MAXACTVP
 70
    64
  9
$PINSBASE
 10
0.0
 20
0.0
 30
0.0
  9
$PLIMCHECK
 70
     0
  9
$PEXTMIN
 10
1.0000000000E+20
 20
1.0000000000E+20
 30
1.0000000000E+20
  9
$PEXTMAX
 10
-1.0000000000E+20
 20
-1.0000000000E+20
 30
-1.0000000000E+20
  9
$PLIMMIN
 10
0.0
 20
0.0
  9
$PLIMMAX
 10
420.0
 20
297.0
  9
$UNITMODE
 70
     0
  9
$VISRETAIN
 70
     1
  9
$PLINEGEN
 70
     0
  9
$PSLTSCALE
 70
     1
  9
$TREEDEPTH
 70
  3020
  9
$CMLSTYLE
  2
Standard
  9
$CMLJUST
 70
     0
  9
$CMLSCALE
 40
20.0
  9
$PROXYGRAPHICS
 70
     1
  9
$MEASUREMENT
 70
     1
  9
$CELWEIGHT
370
    -1
  9
$ENDCAPS
280
     0
  9
$JOINSTYLE
280
     0
  9
$LWDISPLAY
290
     1
  9
$INSUNITS
 70
     4
  9
$HYPERLINKBASE
  1

  9
$STYLESHEET
  1

  9
$XEDIT
290
     1
  9
$CEPSNTYPE
380
     0
  9
$PSTYLEMODE
290
     1
  9
$FINGERPRINTGUID
  2
{A51AA3FD-1DEB-4BC0-95B8-8DF7093875F0}
  9
$VERSIONGUID
  2
{FAEB1C32-E019-11D5-929B-00C0DF256EC4}
  9
$EXTNAMES
290
     1
  9
$PSVPSCALE
 40
0.0
  9
$OLESTARTUP
290
     0
  0
ENDSEC
  0
SECTION
  2
CLASSES
  0
CLASS
  1
ACDBDICTIONARYWDFLT
  2
AcDbDictionaryWithDefault
  3
ObjectDBX Classes
 90
        0
280
     0
281
     0
  0
CLASS
  1
VISUALSTYLE
  2
AcDbVisualStyle
  3
ObjectDBX Classes
 90
     4095
280
     0
281
     0
  0
CLASS
  1
MATERIAL
  2
AcDbMaterial
  3
ObjectDBX Classes
 90
     1153
280
     0
281
     0
  0
CLASS
  1
SCALE
  2
AcDbScale
  3
ObjectDBX Classes
 90
     1153
280
     0
281
     0
  0
CLASS
  1
TABLESTYLE
  2
AcDbTableStyle
  3
ObjectDBX Classes
 90
     4095
280
     0
281
     0
  0
CLASS
  1
MLEADERSTYLE
  2
AcDbMLeaderStyle
  3
ACDB_MLEADERSTYLE_CLASS
 90
     4095
280
     0
281
     0
  0
CLASS
  1
SUN
  2
AcDbSun
  3
SCENEOE
 90
     1153
280
     0
281
     0
  0
CLASS
  1
ACDBPLACEHOLDER
  2
AcDbPlaceHolder
  3
ObjectDBX Classes
 90
        0
280
     0
281
     0
  0
CLASS
  1
LAYOUT
  2
AcDbLayout
  3
ObjectDBX Classes
 90
        0
280
     0
281
     0
  0
ENDSEC
  0
SECTION
  2
TABLES
  0
TABLE
  2
VPORT
  5
8
330
0
100
AcDbSymbolTable
 70
     1
  0
VPORT
  5
29
330
8
100
AcDbSymbolTableRecord
100
AcDbViewportTableRecord
  2
*Active
 70
     0
 10
0.0
 20
0.0
 11
1.0
 21
1.0
 12
210.0
 22
148.5
 13
0.0
 23
0.0
 14
10.0
 24
10.0
 15
10.0
 25
10.0
 16
0.0
 26
0.0
 36
1.0
 17
0.0
 27
0.0
 37
0.0
 40
297.0
 41
1.4141414141
 42
50.0
 43
0.0
 44
0.0
 50
0.0
 51
0.0
 71
     0
 72
  2000
 73
     1
 74
     3
 75
     0
 76
     0
 77
     0
 78
     0
281
     0
 65
     1
110
0.0
120
0.0
130
0.0
111
1.0
121
0.0
131
0.0
112
0.0
122
1.0
132
0.0
 79
     0
146
0.0
  0
ENDTAB
  0
TABLE
  2
LTYPE
  5
5
330
0
100
AcDbSymbolTable
 70
     6
  0
LTYPE
  5
14
330
5
100
AcDbSymbolTableRecord
100
AcDbLinetypeTableRecord
  2
ByBlock
 70
     0
  3

 72
    65
 73
     0
 40
0.0
  0
LTYPE
  5
15
330
5
100
AcDbSymbolTableRecord
100
AcDbLinetypeTableRecord
  2
ByLayer
 70
     0
  3

 72
    65
 73
     0
 40
0.0
  0
LTYPE
  5
16
330
5
100
AcDbSymbolTableRecord
100
AcDbLinetypeTableRecord
  2
Continuous
 70
     0
  3
Solid line
 72
    65
 73
     0
 40
0.0
  0
LTYPE
  5
6E
330
5
100
AcDbSymbolTableRecord
100
AcDbLinetypeTableRecord
  2
HIDDEN
 70
     0
  3
Hidden __ __ __ __ __ __ __ __ __ __ __ __ __ __
 72
    65
 73
     2
 40
1.905
 49
1.27
 74
     0
 49
-0.635
 74
     0
  0
LTYPE
  5
6F
330
5
100
AcDbSymbolTableRecord
100
AcDbLinetypeTableRecord
  2
PHANTOM
 70
     0
  3
Phantom ______  __  __  ______  __  __  ______
 72
    65
 73
     6
 40
12.7
 49
6.35
 74
     0
 49
-1.27
 74
     0
 49
1.27
 74
     0
 49
-1.27
 74
     0
 49
1.27
 74
     0
 49
-1.27
 74
     0
  0
LTYPE
  5
70
330
5
100
AcDbSymbolTableRecord
100
AcDbLinetypeTableRecord
  2
CENTER
 70
     0
  3
Center ____ _ ____ _ ____ _ ____ _ ____ _ ____
 72
    65
 73
     4
 40
10.16
 49
6.35
 74
     0
 49
-1.27
 74
     0
 49
1.27
 74
     0
 49
-1.27
 74
     0
  0
LTYPE
  5
71
330
5
100
AcDbSymbolTableRecord
100
AcDbLinetypeTableRecord
  2
CENTERX2
 70
     0
  3
Center (2x) ________  __  ________  __  _____
 72
    65
 73
     4
 40
20.32
 49
12.7
 74
     0
 49
-2.54
 74
     0
 49
2.54
 74
     0
 49
-2.54
 74
     0
  0
LTYPE
  5
72
330
5
100
AcDbSymbolTableRecord
100
AcDbLinetypeTableRecord
  2
DOT2
 70
     0
  3
Dot (.5x) ........................................
 72
    65
 73
     2
 40
0.635
 49
0.0
 74
     0
 49
-0.635
 74
     0
  0
ENDTAB
  0
TABLE
  2
LAYER
  5
2
330
0
100
AcDbSymbolTable
 70
     2
  0
LAYER
  5
10
330
2
100
AcDbSymbolTableRecord
100
AcDbLayerTableRecord
  2
0
 70
     0
 62
     7
  6
Continuous
370
    -3
390
F
  0
LAYER
  5
73
330
2
100
AcDbSymbolTableRecord
100
AcDbLayerTableRecord
  2
FORMAT
 70
     0
 62
     7
  6
Continuous
370
    -3
390
F
  0
ENDTAB
  0
TABLE
  2
STYLE
  5
3
330
0
100
AcDbSymbolTable
 70
     3
  0
STYLE
  5
11
330
3
100
AcDbSymbolTableRecord
100
AcDbTextStyleTableRecord
  2
Standard
 70
     0
 40
0.0
 41
1.0
 50
0.0
 71
     0
 42
3.5
  3
txt
  4

  0
STYLE
  5
91
330
3
100
AcDbSymbolTableRecord
100
AcDbTextStyleTableRecord
  2
SLDTEXTSTYLE0
 70
     0
 40
0.0
 41
0.75
 50
0.0
 71
     0
 42
3.5
  3
TXT
  4

  0
STYLE
  5
B3
330
3
100
AcDbSymbolTableRecord
100
AcDbTextStyleTableRecord
  2
SLDTEXTSTYLE1
 70
     0
 40
0.0
 41
0.663
 50
0.0
 71
     0
 42
3.5
  3
TXT
  4

  0
ENDTAB
  0
TABLE
  2
VIEW
  5
6
330
0
100
AcDbSymbolTable
 70
     0
  0
ENDTAB
  0
TABLE
  2
UCS
  5
7
330
0
100
AcDbSymbolTable
 70
     0
  0
ENDTAB
  0
TABLE
  2
APPID
  5
9
330
0
100
AcDbSymbolTable
 70
     1
  0
APPID
  5
12
330
9
100
AcDbSymbolTableRecord
100
AcDbRegAppTableRecord
  2
ACAD
 70
     0
  0
ENDTAB
  0
TABLE
  2
DIMSTYLE
  5
A
330
0
100
AcDbSymbolTable
 70
     8
100
AcDbDimStyleTable
  0
DIMSTYLE
105
27
330
A
100
AcDbSymbolTableRecord
100
AcDbDimStyleTableRecord
  2
ISO-25
 70
     0
 41
2.5
 42
0.625
 43
3.75
 44
1.25
 73
     0
 74
     0
 77
     1
 78
     8
140
2.5
141
2.5
143
0.0393700787
147
0.625
171
     3
172
     1
178
     0
271
     2
272
     2
274
     3
278
    44
283
     0
284
     8
340
11
  0
DIMSTYLE
105
129
102
{ACAD_REACTORS
330
128
330
152
330
1D6
330
1E2
330
209
102
}
330
A
100
AcDbSymbolTableRecord
100
AcDbDimStyleTableRecord
  2
SLDDIMSTYLE0
 70
     0
 41
3.302
 44
0.0
 45
0.000000001
 73
     0
 74
     0
 77
     1
 78
    12
 79
     3
140
3.5
147
0.875
172
     1
173
     1
178
     0
271
     2
272
     2
276
     2
284
    12
289
     0
340
91
  0
DIMSTYLE
105
134
102
{ACAD_REACTORS
330
133
102
}
330
A
100
AcDbSymbolTableRecord
100
AcDbDimStyleTableRecord
  2
SLDDIMSTYLE1
 70
     0
 41
3.302
 44
0.0
 45
0.000000001
 47
-0.006
 48
0.017
 71
     1
 73
     0
 74
     0
 77
     1
 78
    12
 79
     3
140
3.5
147
0.875
173
     1
178
     0
271
     2
272
     2
276
     2
284
     8
340
91
  0
DIMSTYLE
105
146
102
{ACAD_REACTORS
330
145
330
15E
102
}
330
A
100
AcDbSymbolTableRecord
100
AcDbDimStyleTableRecord
  2
SLDDIMSTYLE2
 70
     0
 41
3.302
 44
0.0
 45
0.000000001
 73
     0
 74
     0
 77
     1
 78
    12
 79
     3
140
3.5
147
0.875
173
     1
178
     0
271
     2
272
     2
276
     2
284
    12
340
91
  0
DIMSTYLE
105
173
102
{ACAD_REACTORS
330
172
102
}
330
A
100
AcDbSymbolTableRecord
100
AcDbDimStyleTableRecord
  2
SLDDIMSTYLE3
 70
     0
 41
3.302
 44
0.0
 45
0.000000001
 73
     0
 74
     0
 77
     1
 78
    12
 79
     3
140
3.5
141
0.0
147
0.875
172
     1
173
     1
178
     0
271
     2
272
     2
276
     2
284
    12
340
91
341
174
343
174
  0
DIMSTYLE
105
1C2
102
{ACAD_REACTORS
330
1C1
102
}
330
A
100
AcDbSymbolTableRecord
100
AcDbDimStyleTableRecord
  2
SLDDIMSTYLE4
 70
     0
 41
3.302
 44
0.0
 45
0.000000001
 47
0.14
 71
     1
 73
     0
 74
     0
 77
     1
 78
    12
 79
     3
140
3.5
147
0.875
172
     1
173
     1
178
     0
271
     2
272
     2
276
     2
284
     8
289
     0
340
91
  0
DIMSTYLE
105
1F0
102
{ACAD_REACTORS
330
1EF
102
}
330
A
100
AcDbSymbolTableRecord
100
AcDbDimStyleTableRecord
  2
SLDDIMSTYLE5
 70
     0
 41
3.302
 44
0.0
 45
0.000000001
 73
     0
 74
     0
 77
     1
 78
     8
 79
     2
140
3.5
147
0.875
172
     1
173
     1
178
     0
271
     2
272
     2
276
     2
284
    12
289
     0
340
91
  0
DIMSTYLE
105
1FD
102
{ACAD_REACTORS
330
1FC
330
215
102
}
330
A
100
AcDbSymbolTableRecord
100
AcDbDimStyleTableRecord
  2
SLDDIMSTYLE6
 70
     0
 41
3.302
 44
0.0
 73
     0
 74
     0
 77
     1
 78
    12
 79
     3
140
3.5
147
0.875
173
     1
178
     0
179
     2
272
     2
276
     2
284
    12
340
91
  0
ENDTAB
  0
TABLE
  2
BLOCK_RECORD
  5
1
330
0
100
AcDbSymbolTable
 70
    19
  0
BLOCK_RECORD
  5
1F
330
1
100
AcDbSymbolTableRecord
100
AcDbBlockTableRecord
  2
*Model_Space
340
22
  0
BLOCK_RECORD
  5
1B
330
1
100
AcDbSymbolTableRecord
100
AcDbBlockTableRecord
  2
*Paper_Space
340
1E
  0
BLOCK_RECORD
  5
23
330
1
100
AcDbSymbolTableRecord
100
AcDbBlockTableRecord
  2
*Paper_Space0
340
26
  0
BLOCK_RECORD
  5
74
330
1
100
AcDbSymbolTableRecord
100
AcDbBlockTableRecord
  2
Bloc cartouche polivalent
340
0
102
{BLKREFS
331
DF
102
}
  0
BLOCK_RECORD
  5
93
330
1
100
AcDbSymbolTableRecord
100
AcDbBlockTableRecord
  2
SW_NOTE_0
340
0
102
{BLKREFS
331
98
102
}
  0
BLOCK_RECORD
  5
9F
330
1
100
AcDbSymbolTableRecord
100
AcDbBlockTableRecord
  2
SW_NOTE_1
340
0
102
{BLKREFS
331
A8
102
}
  0
BLOCK_RECORD
  5
12A
330
1
100
AcDbSymbolTableRecord
100
AcDbBlockTableRecord
  2
_D
340
0
  0
BLOCK_RECORD
  5
135
330
1
100
AcDbSymbolTableRecord
100
AcDbBlockTableRecord
  2
_D_1
340
0
  0
BLOCK_RECORD
  5
147
330
1
100
AcDbSymbolTableRecord
100
AcDbBlockTableRecord
  2
_D_2
340
0
  0
BLOCK_RECORD
  5
153
330
1
100
AcDbSymbolTableRecord
100
AcDbBlockTableRecord
  2
_D_3
340
0
  0
BLOCK_RECORD
  5
15F
330
1
100
AcDbSymbolTableRecord
100
AcDbBlockTableRecord
  2
_D_4
340
0
  0
BLOCK_RECORD
  5
174
330
1
100
AcDbSymbolTableRecord
100
AcDbBlockTableRecord
  2
_NONE
340
0
  0
BLOCK_RECORD
  5
177
330
1
100
AcDbSymbolTableRecord
100
AcDbBlockTableRecord
  2
_D_5
340
0
  0
BLOCK_RECORD
  5
17F
330
1
100
AcDbSymbolTableRecord
100
AcDbBlockTableRecord
  2
SW_CENTERMARKSYMBOL_0
340
0
102
{BLKREFS
331
18A
102
}
  0
BLOCK_RECORD
  5
1C3
330
1
100
AcDbSymbolTableRecord
100
AcDbBlockTableRecord
  2
_D_6
340
0
  0
BLOCK_RECORD
  5
1D7
330
1
100
AcDbSymbolTableRecord
100
AcDbBlockTableRecord
  2
_D_7
340
0
  0
BLOCK_RECORD
  5
1E3
330
1
100
AcDbSymbolTableRecord
100
AcDbBlockTableRecord
  2
_D_8
340
0
  0
BLOCK_RECORD
  5
1F1
330
1
100
AcDbSymbolTableRecord
100
AcDbBlockTableRecord
  2
_D_9
340
0
  0
BLOCK_RECORD
  5
1FE
330
1
100
AcDbSymbolTableRecord
100
AcDbBlockTableRecord
  2
_D_10
340
0
  0
BLOCK_RECORD
  5
20A
330
1
100
AcDbSymbolTableRecord
100
AcDbBlockTableRecord
  2
_D_11
340
0
  0
BLOCK_RECORD
  5
216
330
1
100
AcDbSymbolTableRecord
100
AcDbBlockTableRecord
  2
_D_12
340
0
  0
ENDTAB
  0
ENDSEC
  0
SECTION
  2
BLOCKS
  0
BLOCK
  5
20
330
1F
100
AcDbEntity
  8
0
100
AcDbBlockBegin
  2
*Model_Space
 70
     0
 10
0.0
 20
0.0
 30
0.0
  3
*Model_Space
  1

  0
ENDBLK
  5
21
330
1F
100
AcDbEntity
  8
0
100
AcDbBlockEnd
  0
BLOCK
  5
1C
330
1B
100
AcDbEntity
 67
     1
  8
0
100
AcDbBlockBegin
  2
*Paper_Space
 70
     0
 10
0.0
 20
0.0
 30
0.0
  3
*Paper_Space
  1

  0
ENDBLK
  5
1D
330
1B
100
AcDbEntity
 67
     1
  8
0
100
AcDbBlockEnd
  0
BLOCK
  5
24
330
23
100
AcDbEntity
  8
0
100
AcDbBlockBegin
  2
*Paper_Space0
 70
     0
 10
0.0
 20
0.0
 30
0.0
  3
*Paper_Space0
  1

  0
ENDBLK
  5
25
330
23
100
AcDbEntity
  8
0
100
AcDbBlockEnd
  0
BLOCK
  5
75
330
74
100
AcDbEntity
  8
0
100
AcDbBlockBegin
  2
Bloc cartouche polivalent
 70
     2
 10
0.0
 20
0.0
 30
0.0
  3
Bloc cartouche polivalent
  1

  0
CIRCLE
  5
77
330
74
100
AcDbEntity
  8
0
  6
Continuous
 62
     7
370
    18
100
AcDbCircle
 10
515.6701611947
 20
62.7586473129
 30
0.0
 40
2.017029278742118
  0
CIRCLE
  5
78
330
74
100
AcDbEntity
  8
0
  6
Continuous
 62
     7
370
    18
100
AcDbCircle
 10
515.6701611947
 20
62.7586473129
 30
0.0
 40
1.118718805257745
  0
LINE
  5
79
330
74
100
AcDbEntity
  8
0
  6
Continuous
 62
     7
370
    18
100
AcDbLine
 10
506.045423658
 20
63.8110104148
 30
0.0
 11
506.045423658
 21
61.8816780612
 31
0.0
  0
LINE
  5
7A
330
74
100
AcDbEntity
  8
0
  6
Continuous
 62
     7
370
    18
100
AcDbLine
 10
506.045423658
 20
61.8816780612
 30
0.0
 11
509.4217552768
 21
60.7416180341
 31
0.0
  0
LINE
  5
7B
330
74
100
AcDbEntity
  8
0
  6
Continuous
 62
     7
370
    18
100
AcDbLine
 10
509.4217552768
 20
60.7416180341
 30
0.0
 11
509.4217552768
 21
64.7756765916
 31
0.0
  0
LINE
  5
7C
330
74
100
AcDbEntity
  8
0
  6
Continuous
 62
     7
370
    18
100
AcDbLine
 10
509.4217552768
 20
64.7756765916
 30
0.0
 11
506.045423658
 21
63.8110104148
 31
0.0
  0
LINE
  5
7D
330
74
100
AcDbEntity
  8
0
  6
CENTERX2
 62
     7
370
    18
100
AcDbLine
 10
504.37918208
 20
62.7586473129
 30
0.0
 11
510.7372091542
 21
62.7586473129
 31
0.0
  0
LINE
  5
7E
330
74
100
AcDbEntity
  8
0
  6
CENTERX2
 62
     7
370
    18
100
AcDbLine
 10
512.9734807459
 20
62.7586473129
 30
0.0
 11
518.3668416434
 21
62.7586473129
 31
0.0
  0
LINE
  5
7F
330
74
100
AcDbEntity
  8
0
  6
CENTERX2
 62
     7
370
    18
100
AcDbLine
 10
515.6701611947
 20
65.3457066052
 30
0.0
 11
515.6701611947
 21
60.1715880206
 31
0.0
  0
LINE
  5
80
330
74
100
AcDbEntity
  8
0
  6
Continuous
 62
     7
370
    50
100
AcDbLine
 10
521.7623326247
 20
59.7972409843
 30
0.0
 11
521.7623326247
 21
66.1722409843
 31
0.0
  0
LINE
  5
81
330
74
100
AcDbEntity
  8
0
  6
Continuous
 62
     7
370
    50
100
AcDbLine
 10
457.9256896205
 20
15.2176620386
 30
0.0
 11
583.3256896205
 21
15.1104259912
 31
0.0
  0
LINE
  5
82
330
74
100
AcDbEntity
  8
0
  6
Continuous
 62
     7
370
    50
100
AcDbLine
 10
583.3256896205
 20
49.1104259912
 30
0.0
 11
457.9256896205
 21
49.1104259912
 31
0.0
  0
LINE
  5
83
330
74
100
AcDbEntity
  8
0
  6
Continuous
 62
     7
370
    50
100
AcDbLine
 10
457.9256896205
 20
66.1104259912
 30
0.0
 11
583.3256896205
 21
66.1104259912
 31
0.0
  0
LINE
  5
84
330
74
100
AcDbEntity
  8
0
  6
Continuous
 62
     7
370
    50
100
AcDbLine
 10
457.9256896205
 20
10.8604259912
 30
0.0
 11
457.9256896205
 21
27.8604259912
 31
0.0
  0
LINE
  5
85
330
74
100
AcDbEntity
  8
0
  6
Continuous
 62
     7
370
    50
100
AcDbLine
 10
502.1256896205
 20
43.8789075439
 30
0.0
 11
457.9256896205
 21
43.8789075439
 31
0.0
  0
LINE
  5
86
330
74
100
AcDbEntity
  8
0
  6
Continuous
 62
     7
370
    50
100
AcDbLine
 10
457.9256896205
 20
27.8604259912
 30
0.0
 11
457.9256896205
 21
66.1104259912
 31
0.0
  0
LINE
  5
87
330
74
100
AcDbEntity
  8
0
  6
Continuous
 62
     7
370
    50
100
AcDbLine
 10
489.3259692552
 20
66.1104259912
 30
0.0
 11
489.3259692552
 21
49.1104259912
 31
0.0
  0
LINE
  5
88
330
74
100
AcDbEntity
  8
0
  6
Continuous
 62
     7
370
    50
100
AcDbLine
 10
457.9256896205
 20
27.8604259912
 30
0.0
 11
583.3256896205
 21
27.8604259912
 31
0.0
  0
LINE
  5
89
330
74
100
AcDbEntity
  8
0
  6
Continuous
 62
     7
370
    50
100
AcDbLine
 10
502.1256896205
 20
66.1104259912
 30
0.0
 11
502.1256896205
 21
10.8604259912
 31
0.0
  0
LINE
  5
8A
330
74
100
AcDbEntity
  8
0
  6
Continuous
 62
     7
370
    50
100
AcDbLine
 10
546.3256896205
 20
10.8604259912
 30
0.0
 11
546.3256896205
 21
15.1104259912
 31
0.0
  0
LINE
  5
8B
330
74
100
AcDbEntity
  8
0
  6
Continuous
 62
     7
370
    50
100
AcDbLine
 10
554.1256896205
 20
59.7354259912
 30
0.0
 11
554.1256896205
 21
66.1104259912
 31
0.0
  0
LINE
  5
8C
330
74
100
AcDbEntity
  8
0
  6
Continuous
 62
     7
370
    50
100
AcDbLine
 10
570.3256896205
 20
15.1104259912
 30
0.0
 11
570.3256896205
 21
27.8604259912
 31
0.0
  0
LINE
  5
8D
330
74
100
AcDbEntity
  8
0
  6
Continuous
 62
     7
370
    50
100
AcDbLine
 10
583.3256896205
 20
59.7354259912
 30
0.0
 11
502.1256896205
 21
59.7354259912
 31
0.0
  0
LINE
  5
8E
330
74
100
AcDbEntity
  8
0
  6
Continuous
 62
     7
370
    50
100
AcDbLine
 10
583.3256896205
 20
19.3604259912
 30
0.0
 11
570.3256896205
 21
19.3604259912
 31
0.0
  0
LINE
  5
8F
330
74
100
AcDbEntity
  8
0
  6
Continuous
 62
     7
370
    50
100
AcDbLine
 10
516.0476902944
 20
10.9676620386
 30
0.0
 11
516.0476902944
 21
15.2176620386
 31
0.0
  0
LINE
  5
90
330
74
100
AcDbEntity
  8
0
  6
Continuous
 62
     7
370
    50
100
AcDbLine
 10
502.1256896205
 20
35.3200130963
 30
0.0
 11
457.9256896205
 21
35.3200130963
 31
0.0
  0
MTEXT
  5
92
330
74
100
AcDbEntity
  8
0
  6
Continuous
 62
     7
370
     0
100
AcDbMText
 10
460.1865425142
 20
42.302662402
 30
0.0
 40
1.5
 41
0.0
 71
     1
 72
     1
  1
FINITION:
  7
SLDTEXTSTYLE0
 73
     1
 44
1.0
  0
INSERT
  5
98
330
74
100
AcDbEntity
  8
0
  6
Continuous
 62
     7
370
     0
100
AcDbBlockReference
  2
SW_NOTE_0
 10
490.0565064879
 20
60.8154410921
 30
0.0
  0
MTEXT
  5
99
330
74
100
AcDbEntity
  8
0
  6
Continuous
 62
     7
370
     0
100
AcDbMText
 10
459.2437036703
 20
26.6054405513
 30
0.0
 40
1.5
 41
0.0
 71
     1
 72
     1
  1
MATERIAU:
  7
SLDTEXTSTYLE0
 73
     1
 44
1.0
  0
MTEXT
  5
9A
330
74
100
AcDbEntity
  8
0
  6
Continuous
 62
     7
370
     0
100
AcDbMText
 10
524.7010337186
 20
62.9542929425
 30
0.0
 40
1.5
 41
0.0
 71
     1
 72
     1
  1
NE PAS CHANGER L'ECHELLE
  7
SLDTEXTSTYLE0
 73
     1
 44
1.0
  0
MTEXT
  5
9B
330
74
100
AcDbEntity
  8
0
  6
Continuous
 62
     7
370
     0
100
AcDbMText
 10
556.9254230609
 20
62.9542929425
 30
0.0
 40
1.5
 41
0.0
 71
     1
 72
     1
  1
REVISION
  7
SLDTEXTSTYLE0
 73
     1
 44
1.0
  0
MTEXT
  5
9C
330
74
100
AcDbEntity
  8
0
  6
Continuous
 62
     7
370
     0
100
AcDbMText
 10
503.6261376405
 20
47.1955634832
 30
0.0
 40
1.5
 41
0.0
 71
     1
 72
     1
  1
TITRE:
  7
SLDTEXTSTYLE0
 73
     1
 44
1.0
  0
MTEXT
  5
9D
330
74
100
AcDbEntity
  8
0
  6
Continuous
 62
     7
370
     0
100
AcDbMText
 10
503.2285784929
 20
26.6054405513
 30
0.0
 40
1.5
 41
0.0
 71
     1
 72
     1
  1
No. DE PLAN
  7
SLDTEXTSTYLE0
 73
     1
 44
1.0
  0
MTEXT
  5
9E
330
74
100
AcDbEntity
  8
0
  6
Continuous
 62
     7
370
     0
100
AcDbMText
 10
517.4237287036
 20
13.5194715365
 30
0.0
 40
1.5
 41
0.0
 71
     1
 72
     1
  1
DATE :
  7
SLDTEXTSTYLE0
 73
     1
 44
1.0
  0
INSERT
  5
A8
330
74
100
AcDbEntity
  8
0
  6
Continuous
 62
     7
370
     0
100
AcDbBlockReference
  2
SW_NOTE_1
 10
459.2437036703
 20
62.6067534378
 30
0.0
  0
MTEXT
  5
A9
330
74
100
AcDbEntity
  8
0
  6
Continuous
 62
     7
370
     0
100
AcDbMText
 10
459.7882723419
 20
47.1955634832
 30
0.0
 40
1.5
 41
0.0
 71
     1
 72
     1
  1
Quantité de pièce :
  7
SLDTEXTSTYLE0
 73
     1
 44
1.0
  0
MTEXT
  5
AA
330
74
100
AcDbEntity
  8
0
  6
Continuous
 62
     7
370
     0
100
AcDbMText
 10
503.9507134444
 20
57.7490428135
 30
0.0
 40
1.5
 41
0.0
 71
     1
 72
     1
  1
Entreprise
  7
SLDTEXTSTYLE0
 73
     1
 44
1.0
  0
MTEXT
  5
AB
330
74
100
AcDbEntity
  8
0
  6
Continuous
 62
     7
370
     0
100
AcDbMText
 10
460.1865425142
 20
34.0666452458
 30
0.0
 40
1.5
 41
0.0
 71
     1
 72
     1
  1
Tolérance générales : ISO 2768 - mk
  7
SLDTEXTSTYLE0
 73
     1
 44
1.0
  0
MTEXT
  5
AC
330
74
100
AcDbEntity
  8
0
  6
Continuous
 62
     7
370
     0
100
AcDbMText
 10
460.1865425142
 20
30.545927371
 30
0.0
 40
1.5
 41
0.0
 71
     1
 72
     1
  1
Tolérance mécanosoudures: ISO 13920AAE
  7
SLDTEXTSTYLE0
 73
     1
 44
1.0
  0
ATTDEF
  5
AD
330
74
100
AcDbEntity
  8
0
  6
Continuous
 62
     7
370
     0
100
AcDbText
 10
503.671807479
 20
12.1157600198
 30
0.0
 40
1.5
  1
ECHELLE:1:1
 41
0.75
  7
SLDTEXTSTYLE0
 11
503.671807479
 21
11.5858699269
 31
0.0
100
AcDbAttributeDefinition
  3

  2
AUTOATTR18
 70
     0
 74
     1
  0
ATTDEF
  5
AE
330
74
100
AcDbEntity
  8
0
  6
Continuous
 62
     7
370
     0
100
AcDbText
 10
548.0761357894
 20
12.1157600198
 30
0.0
 40
1.5
  1
FEUILLE: 1 sur 1
 41
0.75
  7
SLDTEXTSTYLE0
 11
548.0761357894
 21
11.5858699269
 31
0.0
100
AcDbAttributeDefinition
  3

  2
AUTOATTR17
 70
     0
 74
     1
  0
ATTDEF
  5
AF
330
74
100
AcDbEntity
  8
0
  6
Continuous
 62
     7
370
     0
100
AcDbText
 10
574.4689977962
 20
22.3021825686
 30
0.0
 40
2.9104166667
  1
A3
 41
0.75
  7
SLDTEXTSTYLE0
 11
574.4689977962
 21
21.2740485967
 31
0.0
100
AcDbAttributeDefinition
  3

  2
AUTOATTR0102
 70
     0
 74
     1
  0
ATTDEF
  5
B0
330
74
100
AcDbEntity
  8
0
  6
Continuous
 62
     7
370
     0
100
AcDbText
 10
477.5646257169
 20
19.8765580369
 30
0.0
 40
2.38125
  1
inox
 41
0.75
  7
SLDTEXTSTYLE0
 11
477.5646257169
 21
19.0353575145
 31
0.0
100
AcDbAttributeDefinition
  3

  2
AUTOATTR16
 70
     0
 74
     1
  0
ATTDEF
  5
B1
330
74
100
AcDbEntity
  8
0
  6
Continuous
 62
     7
370
     0
100
AcDbText
 10
0.0
 20
0.0
 30
0.0
 40
1.0
  1

100
AcDbAttributeDefinition
  3

  2
AUTOATTR15
 70
     0
  0
ATTDEF
  5
B2
330
74
100
AcDbEntity
  8
0
  6
Continuous
 62
     7
370
     0
100
AcDbText
 10
459.2156524897
 20
12.1662947796
 30
0.0
 40
1.4986
  1
MASSE: 
 41
0.75
  7
SLDTEXTSTYLE0
 11
459.2156524897
 21
11.6368992508
 31
0.0
100
AcDbAttributeDefinition
  3

  2
AUTOATTR14
 70
     0
 74
     1
  0
ATTDEF
  5
B4
330
74
100
AcDbEntity
  8
0
  6
Continuous
 62
     7
370
     0
100
AcDbText
 10
535.8004986581
 20
52.5340428833
 30
0.0
 40
5.08
  1
Lauriou
 41
0.663
  7
SLDTEXTSTYLE1
 11
535.8004986581
 21
50.7394817687
 31
0.0
100
AcDbAttributeDefinition
  3

  2
AUTOATTR3
 70
     0
 74
     1
  0
ATTDEF
  5
B5
330
74
100
AcDbEntity
  8
0
  6
Continuous
 62
     7
370
     0
100
AcDbText
 10
477.6668999392
 20
18.2839164749
 30
0.0
 40
6.35
  1
support vérin cuve de pesage
 41
0.75
  7
SLDTEXTSTYLE0
 11
477.6668999392
 21
16.0407150817
 31
0.0
100
AcDbAttributeDefinition
  3

  2
AUTOATTR2
 70
     0
 74
     1
  0
ATTDEF
  5
B6
330
74
100
AcDbEntity
  8
0
  6
Continuous
 62
     7
370
     0
100
AcDbText
 10
0.0
 20
0.0
 30
0.0
 40
1.0
  1

100
AcDbAttributeDefinition
  3

  2
AUTOATTR101
 70
     0
  0
ATTDEF
  5
B7
330
74
100
AcDbEntity
  8
0
  6
Continuous
 62
     7
370
     0
100
AcDbText
 10
568.8330980991
 20
61.5811516508
 30
0.0
 40
1.905
  1
23/02/2022
 41
0.75
  7
SLDTEXTSTYLE0
 11
568.8330980991
 21
60.9081912329
 31
0.0
100
AcDbAttributeDefinition
  3

  2
AUTOATTR0
 70
     0
 74
     1
  0
ATTDEF
  5
B8
330
74
100
AcDbEntity
  8
0
  6
Continuous
 62
     7
370
     0
100
AcDbText
 10
468.4090989602
 20
12.1776702386
 30
0.0
 40
2.1166666667
  1
179.48
 41
0.75
  7
SLDTEXTSTYLE0
 11
468.4090989602
 21
11.4299364409
 31
0.0
100
AcDbAttributeDefinition
  3

  2
AUTOATTR1
 70
     0
 74
     1
  0
ATTDEF
  5
B9
330
74
100
AcDbEntity
  8
0
  6
Continuous
 62
     7
370
     0
100
AcDbText
 10
526.0212770611
 20
12.1270298001
 30
0.0
 40
2.1166666667
  1
08/02/2022
 41
0.75
  7
SLDTEXTSTYLE0
 11
526.0212770611
 21
11.3792960024
 31
0.0
100
AcDbAttributeDefinition
  3

  2
AUTOATTR4
 70
     0
 74
     1
  0
ATTDEF
  5
BA
330
74
100
AcDbEntity
  8
0
  6
Continuous
 62
     7
370
     0
100
AcDbText
 10
484.936423133
 20
45.2249226649
 30
0.0
 40
2.1166666667
  1
2
 41
0.75
  7
SLDTEXTSTYLE0
 11
484.936423133
 21
44.4771888672
 31
0.0
100
AcDbAttributeDefinition
  3

  2
AUTOATTR5
 70
     0
 74
     1
  0
ENDBLK
  5
76
330
74
100
AcDbEntity
  8
0
100
AcDbBlockEnd
  0
BLOCK
  5
94
330
93
100
AcDbEntity
  8
0
100
AcDbBlockBegin
  2
SW_NOTE_0
 70
     0
 10
0.0
 20
0.0
 30
0.0
  3
SW_NOTE_0
  1

  0
MTEXT
  5
96
330
93
100
AcDbEntity
  8
0
  6
Continuous
 62
     0
370
     0
100
AcDbMText
 10
0.0
 20
1.9336016097
 30
0.0
 40
1.5
 41
0.0
 71
     1
 72
     1
  1
CASSER LES
  7
SLDTEXTSTYLE0
 73
     1
 44
1.0
  0
MTEXT
  5
97
330
93
100
AcDbEntity
  8
0
  6
Continuous
 62
     0
370
     0
100
AcDbMText
 10
0.0
 20
-0.5663983345
 30
0.0
 40
1.5
 41
0.0
 71
     1
 72
     1
  1
ANGLES VIFS
  7
SLDTEXTSTYLE0
 73
     1
 44
1.0
  0
ENDBLK
  5
95
330
93
100
AcDbEntity
  8
0
100
AcDbBlockEnd
  0
BLOCK
  5
A0
330
9F
100
AcDbEntity
  8
0
100
AcDbBlockBegin
  2
SW_NOTE_1
 70
     0
 10
0.0
 20
0.0
 30
0.0
  3
SW_NOTE_1
  1

  0
MTEXT
  5
A2
330
9F
100
AcDbEntity
  8
0
  6
Continuous
 62
     0
370
     0
100
AcDbMText
 10
0.0
 20
1.9336016097
 30
0.0
 40
1.5
 41
0.0
 71
     1
 72
     1
  1
SAUF INDICATION CONTRAIRE:
  7
SLDTEXTSTYLE0
 73
     1
 44
1.0
  0
MTEXT
  5
A3
330
9F
100
AcDbEntity
  8
0
  6
Continuous
 62
     0
370
     0
100
AcDbMText
 10
0.0
 20
-0.5663983345
 30
0.0
 40
1.5
 41
0.0
 71
     1
 72
     1
  1
LES COTES SONT EN MILLIMETRES
  7
SLDTEXTSTYLE0
 73
     1
 44
1.0
  0
MTEXT
  5
A4
330
9F
100
AcDbEntity
  8
0
  6
Continuous
 62
     0
370
     0
100
AcDbMText
 10
0.0
 20
-3.0663982786
 30
0.0
 40
1.5
 41
0.0
 71
     1
 72
     1
  1
ETAT DE SURFACE:
  7
SLDTEXTSTYLE0
 73
     1
 44
1.0
  0
MTEXT
  5
A5
330
9F
100
AcDbEntity
  8
0
  6
Continuous
 62
     0
370
     0
100
AcDbMText
 10
0.0
 20
-5.5663982227
 30
0.0
 40
1.5
 41
0.0
 71
     1
 72
     1
  1
TOLERANCES:
  7
SLDTEXTSTYLE0
 73
     1
 44
1.0
  0
MTEXT
  5
A6
330
9F
100
AcDbEntity
  8
0
  6
Continuous
 62
     0
370
     0
100
AcDbMText
 10
1.6875
 20
-8.0663981668
 30
0.0
 40
1.5
 41
0.0
 71
     1
 72
     1
  1
LINEAIRES:
  7
SLDTEXTSTYLE0
 73
     1
 44
1.0
  0
MTEXT
  5
A7
330
9F
100
AcDbEntity
  8
0
  6
Continuous
 62
     0
370
     0
100
AcDbMText
 10
1.6875
 20
-10.5663981109
 30
0.0
 40
1.5
 41
0.0
 71
     1
 72
     1
  1
ANGULAIRES:
  7
SLDTEXTSTYLE0
 73
     1
 44
1.0
  0
ENDBLK
  5
A1
330
9F
100
AcDbEntity
  8
0
100
AcDbBlockEnd
  0
BLOCK
  5
12B
330
12A
100
AcDbEntity
  8
0
100
AcDbBlockBegin
  2
_D
 70
     0
 10
0.0
 20
0.0
 30
0.0
  3
_D
  1

  0
SOLID
  5
12D
330
12A
100
AcDbEntity
  8
0
  6
Continuous
 62
     7
370
    18
100
AcDbTrace
 10
137.8191391079
 20
245.2260017671
 30
0.0
 11
134.5171391079
 21
245.7340017671
 31
0.0
 12
134.5171391079
 22
244.7180017671
 32
0.0
 13
134.5171391079
 23
244.7180017671
 33
0.0
  0
SOLID
  5
12E
330
12A
100
AcDbEntity
  8
0
  6
Continuous
 62
     7
370
    18
100
AcDbTrace
 10
111.6191391079
 20
245.2260017671
 30
0.0
 11
114.9211391079
 21
244.7180017671
 31
0.0
 12
114.9211391079
 22
245.7340017671
 32
0.0
 13
114.9211391079
 23
245.7340017671
 33
0.0
  0
LINE
  5
12F
330
12A
100
AcDbEntity
  8
0
  6
Continuous
 62
     7
370
    18
100
AcDbLine
 10
137.8191391079
 20
234.789084393
 30
0.0
 11
137.8191391079
 21
246.2260017671
 31
0.0
  0
LINE
  5
130
330
12A
100
AcDbEntity
  8
0
  6
Continuous
 62
     7
370
    18
100
AcDbLine
 10
111.6191391079
 20
227.589084393
 30
0.0
 11
111.6191391079
 21
246.2260017671
 31
0.0
  0
LINE
  5
131
330
12A
100
AcDbEntity
  8
0
  6
Continuous
 62
     7
370
    18
100
AcDbLine
 10
137.8191391079
 20
245.2260017671
 30
0.0
 11
111.6191391079
 21
245.2260017671
 31
0.0
  0
MTEXT
  5
132
330
12A
100
AcDbEntity
  8
0
  6
Continuous
 62
     7
370
    18
100
AcDbMText
 10
119.5903018266
 20
249.7377386817
 30
0.0
 40
3.5
 41
0.0
 71
     1
 72
     1
  1
26,20
  7
SLDTEXTSTYLE0
 73
     1
 44
1.0
  0
ENDBLK
  5
12C
330
12A
100
AcDbEntity
  8
0
100
AcDbBlockEnd
  0
BLOCK
  5
136
330
135
100
AcDbEntity
  8
0
100
AcDbBlockBegin
  2
_D_1
 70
     0
 10
0.0
 20
0.0
 30
0.0
  3
_D_1
  1

  0
SOLID
  5
138
330
135
100
AcDbEntity
  8
0
  6
Continuous
 62
     7
370
    18
100
AcDbTrace
 10
101.6191391079
 20
226.789084393
 30
0.0
 11
101.1111391079
 21
223.487084393
 31
0.0
 12
102.1271391079
 22
223.487084393
 32
0.0
 13
102.1271391079
 23
223.487084393
 33
0.0
  0
SOLID
  5
139
330
135
100
AcDbEntity
  8
0
  6
Continuous
 62
     7
370
    18
100
AcDbTrace
 10
101.6191391079
 20
210.7890843931
 30
0.0
 11
102.1271391079
 21
214.0910843931
 31
0.0
 12
101.1111391079
 22
214.0910843931
 32
0.0
 13
101.1111391079
 23
214.0910843931
 33
0.0
  0
LINE
  5
13A
330
135
100
AcDbEntity
  8
0
  6
Continuous
 62
     7
370
    18
100
AcDbLine
 10
112.8191391079
 20
226.789084393
 30
0.0
 11
100.6191391079
 21
226.789084393
 31
0.0
  0
LINE
  5
13B
330
135
100
AcDbEntity
  8
0
  6
Continuous
 62
     7
370
    18
100
AcDbLine
 10
112.8191391079
 20
210.7890843931
 30
0.0
 11
100.6191391079
 21
210.7890843931
 31
0.0
  0
LINE
  5
13C
330
135
100
AcDbEntity
  8
0
  6
Continuous
 62
     7
370
    18
100
AcDbLine
 10
101.6191391079
 20
226.789084393
 30
0.0
 11
101.6191391079
 21
259.9086243936
 31
0.0
  0
LINE
  5
13D
330
135
100
AcDbEntity
  8
0
  6
Continuous
 62
     7
370
    18
100
AcDbLine
 10
101.6191391079
 20
226.789084393
 30
0.0
 11
101.6191391079
 21
210.7890843931
 31
0.0
  0
MTEXT
  5
13E
330
135
100
AcDbEntity
  8
0
  6
Continuous
 62
     7
370
    18
100
AcDbMText
 10
97.1074020187
 20
230.5433791407
 30
0.0
 40
3.5
 41
0.0
 71
     1
 72
     1
  1
%%c
  7
SLDTEXTSTYLE0
 11
-7.044195017643634E-15
 21
1.0
 31
0.0
 73
     1
 44
1.0
  0
MTEXT
  5
13F
330
135
100
AcDbEntity
  8
0
  6
Continuous
 62
     7
370
    18
100
AcDbMText
 10
97.0539298421
 20
235.8218165391
 30
0.0
 40
3.5
 41
0.0
 71
     1
 72
     1
  1
16
  7
SLDTEXTSTYLE0
 11
-7.044195017643634E-15
 21
1.0
 31
0.0
 73
     1
 44
1.0
  0
MTEXT
  5
140
330
135
100
AcDbEntity
  8
0
  6
Continuous
 62
     7
370
    18
100
AcDbMText
 10
97.0539298421
 20
242.3065384605
 30
0.0
 40
3.5
 41
0.0
 71
     1
 72
     1
  1
g6
  7
SLDTEXTSTYLE0
 11
-7.044195017643634E-15
 21
1.0
 31
0.0
 73
     1
 44
1.0
  0
MTEXT
  5
141
330
135
100
AcDbEntity
  8
0
  6
Continuous
 62
     7
370
    18
100
AcDbMText
 10
92.5817074883
 20
249.3065394737
 30
0.0
 40
3.5
 41
0.0
 71
     1
 72
     1
  1
-
  7
SLDTEXTSTYLE0
 11
-7.044195017643634E-15
 21
1.0
 31
0.0
 73
     1
 44
1.0
  0
MTEXT
  5
142
330
135
100
AcDbEntity
  8
0
  6
Continuous
 62
     7
370
    18
100
AcDbMText
 10
97.1074020187
 20
249.3065394737
 30
0.0
 40
3.5
 41
0.0
 71
     1
 72
     1
  1
-
  7
SLDTEXTSTYLE0
 11
-7.044195017643634E-15
 21
1.0
 31
0.0
 73
     1
 44
1.0
  0
MTEXT
  5
143
330
135
100
AcDbEntity
  8
0
  6
Continuous
 62
     7
370
    18
100
AcDbMText
 10
92.5817074883
 20
250.8572344013
 30
0.0
 40
3.5
 41
0.0
 71
     1
 72
     1
  1
0,01
  7
SLDTEXTSTYLE0
 11
-7.044195017643634E-15
 21
1.0
 31
0.0
 73
     1
 44
1.0
  0
MTEXT
  5
144
330
135
100
AcDbEntity
  8
0
  6
Continuous
 62
     7
370
    18
100
AcDbMText
 10
97.1074020187
 20
250.8572344013
 30
0.0
 40
3.5
 41
0.0
 71
     1
 72
     1
  1
0,02
  7
SLDTEXTSTYLE0
 11
-7.044195017643634E-15
 21
1.0
 31
0.0
 73
     1
 44
1.0
  0
ENDBLK
  5
137
330
135
100
AcDbEntity
  8
0
100
AcDbBlockEnd
  0
BLOCK
  5
148
330
147
100
AcDbEntity
  8
0
100
AcDbBlockBegin
  2
_D_2
 70
     0
 10
0.0
 20
0.0
 30
0.0
  3
_D_2
  1

  0
SOLID
  5
14A
330
147
100
AcDbEntity
  8
0
  6
Continuous
 62
     7
370
    18
100
AcDbTrace
 10
194.6176045568
 20
226.789084393
 30
0.0
 11
194.1096045568
 21
223.487084393
 31
0.0
 12
195.1256045568
 22
223.487084393
 32
0.0
 13
195.1256045568
 23
223.487084393
 33
0.0
  0
SOLID
  5
14B
330
147
100
AcDbEntity
  8
0
  6
Continuous
 62
     7
370
    18
100
AcDbTrace
 10
194.6176045568
 20
210.7890843932
 30
0.0
 11
195.1256045568
 21
214.0910843932
 31
0.0
 12
194.1096045568
 22
214.0910843932
 32
0.0
 13
194.1096045568
 23
214.0910843932
 33
0.0
  0
LINE
  5
14C
330
147
100
AcDbEntity
  8
0
  6
Continuous
 62
     7
370
    18
100
AcDbLine
 10
164.3191391079
 20
226.789084393
 30
0.0
 11
195.6176045568
 21
226.789084393
 31
0.0
  0
LINE
  5
14D
330
147
100
AcDbEntity
  8
0
  6
Continuous
 62
     7
370
    18
100
AcDbLine
 10
164.3191391079
 20
210.7890843932
 30
0.0
 11
195.6176045568
 21
210.7890843932
 31
0.0
  0
LINE
  5
14E
330
147
100
AcDbEntity
  8
0
  6
Continuous
 62
     7
370
    18
100
AcDbLine
 10
194.6176045568
 20
226.789084393
 30
0.0
 11
194.6176045568
 21
249.0144145185
 31
0.0
  0
LINE
  5
14F
330
147
100
AcDbEntity
  8
0
  6
Continuous
 62
     7
370
    18
100
AcDbLine
 10
194.6176045568
 20
226.789084393
 30
0.0
 11
194.6176045568
 21
210.7890843932
 31
0.0
  0
MTEXT
  5
150
330
147
100
AcDbEntity
  8
0
  6
Continuous
 62
     7
370
    18
100
AcDbMText
 10
190.1058674676
 20
238.5637542674
 30
0.0
 40
3.5
 41
0.0
 71
     1
 72
     1
  1
%%c
  7
SLDTEXTSTYLE0
 11
-7.044195017643634E-15
 21
1.0
 31
0.0
 73
     1
 44
1.0
  0
MTEXT
  5
151
330
147
100
AcDbEntity
  8
0
  6
Continuous
 62
     7
370
    18
100
AcDbMText
 10
190.052395291
 20
243.8421916658
 30
0.0
 40
3.5
 41
0.0
 71
     1
 72
     1
  1
16
  7
SLDTEXTSTYLE0
 11
-7.044195017643634E-15
 21
1.0
 31
0.0
 73
     1
 44
1.0
  0
ENDBLK
  5
149
330
147
100
AcDbEntity
  8
0
100
AcDbBlockEnd
  0
BLOCK
  5
154
330
153
100
AcDbEntity
  8
0
100
AcDbBlockBegin
  2
_D_3
 70
     0
 10
0.0
 20
0.0
 30
0.0
  3
_D_3
  1

  0
SOLID
  5
156
330
153
100
AcDbEntity
  8
0
  6
Continuous
 62
     7
370
    18
100
AcDbTrace
 10
164.3191391079
 20
249.789084393
 30
0.0
 11
167.6211391079
 21
249.281084393
 31
0.0
 12
167.6211391079
 22
250.297084393
 32
0.0
 13
167.6211391079
 23
250.297084393
 33
0.0
  0
SOLID
  5
157
330
153
100
AcDbEntity
  8
0
  6
Continuous
 62
     7
370
    18
100
AcDbTrace
 10
161.3191391079
 20
249.789084393
 30
0.0
 11
158.0171391079
 21
250.297084393
 31
0.0
 12
158.0171391079
 22
249.281084393
 32
0.0
 13
158.0171391079
 23
249.281084393
 33
0.0
  0
LINE
  5
158
330
153
100
AcDbEntity
  8
0
  6
Continuous
 62
     7
370
    18
100
AcDbLine
 10
164.3191391079
 20
227.789084393
 30
0.0
 11
164.3191391079
 21
250.789084393
 31
0.0
  0
LINE
  5
159
330
153
100
AcDbEntity
  8
0
  6
Continuous
 62
     7
370
    18
100
AcDbLine
 10
161.3191391079
 20
234.789084393
 30
0.0
 11
161.3191391079
 21
250.789084393
 31
0.0
  0
LINE
  5
15A
330
153
100
AcDbEntity
  8
0
  6
Continuous
 62
     7
370
    18
100
AcDbLine
 10
164.3191391079
 20
249.789084393
 30
0.0
 11
179.6215565947
 21
249.789084393
 31
0.0
  0
LINE
  5
15B
330
153
100
AcDbEntity
  8
0
  6
Continuous
 62
     7
370
    18
100
AcDbLine
 10
164.3191391079
 20
249.789084393
 30
0.0
 11
161.3191391079
 21
249.789084393
 31
0.0
  0
LINE
  5
15C
330
153
100
AcDbEntity
  8
0
  6
Continuous
 62
     7
370
    18
100
AcDbLine
 10
161.3191391079
 20
249.789084393
 30
0.0
 11
154.9691391079
 21
249.789084393
 31
0.0
  0
MTEXT
  5
15D
330
153
100
AcDbEntity
  8
0
  6
Continuous
 62
     7
370
    18
100
AcDbMText
 10
177.0354454012
 20
254.3008213076
 30
0.0
 40
3.5
 41
0.0
 71
     1
 72
     1
  1
3
  7
SLDTEXTSTYLE0
 73
     1
 44
1.0
  0
ENDBLK
  5
155
330
153
100
AcDbEntity
  8
0
100
AcDbBlockEnd
  0
BLOCK
  5
160
330
15F
100
AcDbEntity
  8
0
100
AcDbBlockBegin
  2
_D_4
 70
     0
 10
0.0
 20
0.0
 30
0.0
  3
_D_4
  1

  0
SOLID
  5
162
330
15F
100
AcDbEntity
  8
0
  6
Continuous
 62
     7
370
    18
100
AcDbTrace
 10
164.3191391079
 20
187.7890843932
 30
0.0
 11
161.0171391079
 21
188.2970843932
 31
0.0
 12
161.0171391079
 22
187.2810843932
 32
0.0
 13
161.0171391079
 23
187.2810843932
 33
0.0
  0
SOLID
  5
163
330
15F
100
AcDbEntity
  8
0
  6
Continuous
 62
     7
370
    18
100
AcDbTrace
 10
111.6191391079
 20
187.7890843932
 30
0.0
 11
114.9211391079
 21
187.2810843932
 31
0.0
 12
114.9211391079
 22
188.2970843932
 32
0.0
 13
114.9211391079
 23
188.2970843932
 33
0.0
  0
LINE
  5
164
330
15F
100
AcDbEntity
  8
0
  6
Continuous
 62
     7
370
    18
100
AcDbLine
 10
164.3191391079
 20
209.7890843932
 30
0.0
 11
164.3191391079
 21
186.7890843932
 31
0.0
  0
LINE
  5
165
330
15F
100
AcDbEntity
  8
0
  6
Continuous
 62
     7
370
    18
100
AcDbLine
 10
111.6191391079
 20
209.9890843931
 30
0.0
 11
111.6191391079
 21
186.7890843932
 31
0.0
  0
LINE
  5
166
330
15F
100
AcDbEntity
  8
0
  6
Continuous
 62
     7
370
    18
100
AcDbLine
 10
164.3191391079
 20
187.7890843932
 30
0.0
 11
111.6191391079
 21
187.7890843932
 31
0.0
  0
MTEXT
  5
167
330
15F
100
AcDbEntity
  8
0
  6
Continuous
 62
     7
370
    18
100
AcDbMText
 10
132.6152136781
 20
192.3008213077
 30
0.0
 40
3.5
 41
0.0
 71
     1
 72
     1
  1
52,70
  7
SLDTEXTSTYLE0
 73
     1
 44
1.0
  0
ENDBLK
  5
161
330
15F
100
AcDbEntity
  8
0
100
AcDbBlockEnd
  0
BLOCK
  5
175
330
174
100
AcDbEntity
  8
0
100
AcDbBlockBegin
  2
_NONE
 70
     0
 10
0.0
 20
0.0
 30
0.0
  3
_NONE
  1

  0
ENDBLK
  5
176
330
174
100
AcDbEntity
  8
0
100
AcDbBlockEnd
  0
BLOCK
  5
178
330
177
100
AcDbEntity
  8
0
100
AcDbBlockBegin
  2
_D_5
 70
     0
 10
0.0
 20
0.0
 30
0.0
  3
_D_5
  1

  0
SOLID
  5
17A
330
177
100
AcDbEntity
  8
0
  6
Continuous
 62
     7
370
    18
100
AcDbTrace
 10
300.5083208517
 20
224.7795959427
 30
0.0
 11
303.7384432346
 21
225.6325774146
 31
0.0
 12
303.332685919
 22
226.5640370223
 32
0.0
 13
303.332685919
 23
226.5640370223
 33
0.0
  0
LINE
  5
17B
330
177
100
AcDbEntity
  8
0
  6
Continuous
 62
     7
370
    18
100
AcDbLine
 10
300.5083208517
 20
224.7795959427
 30
0.0
 11
366.1915803917
 21
253.3921765118
 31
0.0
  0
LINE
  5
17C
330
177
100
AcDbEntity
  8
0
  6
Continuous
 62
     7
370
    18
100
AcDbLine
 10
300.5083208517
 20
224.7795959427
 30
0.0
 11
273.0045922775
 21
212.7985728435
 31
0.0
  0
MTEXT
  5
17D
330
177
100
AcDbEntity
  8
0
  6
Continuous
 62
     7
370
    18
100
AcDbMText
 10
354.8093320658
 20
253.3533201465
 30
0.0
 40
3.5
 41
0.0
 71
     1
 72
     1
  1
%%c
  7
SLDTEXTSTYLE0
 11
0.9167909524799588
 21
0.3993674366431118
 31
0.0
 73
     1
 44
1.0
  0
MTEXT
  5
17E
330
177
100
AcDbEntity
  8
0
  6
Continuous
 62
     7
370
    18
100
AcDbMText
 10
359.6272006697
 20
255.5103789675
 30
0.0
 40
3.5
 41
0.0
 71
     1
 72
     1
  1
30
  7
SLDTEXTSTYLE0
 11
0.9167909524799588
 21
0.3993674366431118
 31
0.0
 73
     1
 44
1.0
  0
ENDBLK
  5
179
330
177
100
AcDbEntity
  8
0
100
AcDbBlockEnd
  0
BLOCK
  5
180
330
17F
100
AcDbEntity
  8
0
100
AcDbBlockBegin
  2
SW_CENTERMARKSYMBOL_0
 70
     0
 10
0.0
 20
0.0
 30
0.0
  3
SW_CENTERMARKSYMBOL_0
  1

  0
LINE
  5
182
330
17F
100
AcDbEntity
  8
0
  6
Continuous
 62
     0
370
     0
100
AcDbLine
 10
0.0
 20
0.0
 30
0.0
 11
0.0
 21
2.5
 31
0.0
  0
LINE
  5
183
330
17F
100
AcDbEntity
  8
0
  6
Continuous
 62
     0
370
     0
100
AcDbLine
 10
0.0
 20
0.0
 30
0.0
 11
-2.5
 21
0.0
 31
0.0
  0
LINE
  5
184
330
17F
100
AcDbEntity
  8
0
  6
Continuous
 62
     0
370
     0
100
AcDbLine
 10
0.0
 20
0.0
 30
0.0
 11
0.0
 21
-2.5
 31
0.0
  0
LINE
  5
185
330
17F
100
AcDbEntity
  8
0
  6
Continuous
 62
     0
370
     0
100
AcDbLine
 10
0.0
 20
0.0
 30
0.0
 11
2.5
 21
0.0
 31
0.0
  0
LINE
  5
186
330
17F
100
AcDbEntity
  8
0
  6
Continuous
 62
     0
370
     0
100
AcDbLine
 10
0.0
 20
5.0
 30
0.0
 11
0.0
 21
17.4999999999
 31
0.0
  0
LINE
  5
187
330
17F
100
AcDbEntity
  8
0
  6
Continuous
 62
     0
370
     0
100
AcDbLine
 10
-5.0
 20
0.0
 30
0.0
 11
-17.4999999999
 21
0.0
 31
0.0
  0
LINE
  5
188
330
17F
100
AcDbEntity
  8
0
  6
Continuous
 62
     0
370
     0
100
AcDbLine
 10
0.0
 20
-5.0
 30
0.0
 11
0.0
 21
-17.4999999999
 31
0.0
  0
LINE
  5
189
330
17F
100
AcDbEntity
  8
0
  6
Continuous
 62
     0
370
     0
100
AcDbLine
 10
5.0
 20
0.0
 30
0.0
 11
17.4999999999
 21
0.0
 31
0.0
  0
ENDBLK
  5
181
330
17F
100
AcDbEntity
  8
0
100
AcDbBlockEnd
  0
BLOCK
  5
1C4
330
1C3
100
AcDbEntity
  8
0
100
AcDbBlockBegin
  2
_D_6
 70
     0
 10
0.0
 20
0.0
 30
0.0
  3
_D_6
  1

  0
SOLID
  5
1C6
330
1C3
100
AcDbEntity
  8
0
  6
Continuous
 62
     7
370
    18
100
AcDbTrace
 10
113.8191391079
 20
130.2387377857
 30
0.0
 11
117.1211391079
 21
129.7307377857
 31
0.0
 12
117.1211391079
 22
130.7467377857
 32
0.0
 13
117.1211391079
 23
130.7467377857
 33
0.0
  0
SOLID
  5
1C7
330
1C3
100
AcDbEntity
  8
0
  6
Continuous
 62
     7
370
    18
100
AcDbTrace
 10
112.7191391079
 20
130.2387377857
 30
0.0
 11
109.4171391079
 21
130.7467377857
 31
0.0
 12
109.4171391079
 22
129.7307377857
 32
0.0
 13
109.4171391079
 23
129.7307377857
 33
0.0
  0
LINE
  5
1C8
330
1C3
100
AcDbEntity
  8
0
  6
Continuous
 62
     7
370
    18
100
AcDbLine
 10
113.8191391079
 20
109.1493327308
 30
0.0
 11
113.8191391079
 21
131.2387377857
 31
0.0
  0
LINE
  5
1C9
330
1C3
100
AcDbEntity
  8
0
  6
Continuous
 62
     7
370
    18
100
AcDbLine
 10
112.7191391079
 20
109.1493327308
 30
0.0
 11
112.7191391079
 21
131.2387377857
 31
0.0
  0
LINE
  5
1CA
330
1C3
100
AcDbEntity
  8
0
  6
Continuous
 62
     7
370
    18
100
AcDbLine
 10
113.8191391079
 20
130.2387377857
 30
0.0
 11
161.7069624009
 21
130.2387377857
 31
0.0
  0
LINE
  5
1CB
330
1C3
100
AcDbEntity
  8
0
  6
Continuous
 62
     7
370
    18
100
AcDbLine
 10
113.8191391079
 20
130.2387377857
 30
0.0
 11
112.7191391079
 21
130.2387377857
 31
0.0
  0
LINE
  5
1CC
330
1C3
100
AcDbEntity
  8
0
  6
Continuous
 62
     7
370
    18
100
AcDbLine
 10
112.7191391079
 20
130.2387377857
 30
0.0
 11
106.3691391079
 21
130.2387377857
 31
0.0
  0
MTEXT
  5
1CD
330
1C3
100
AcDbEntity
  8
0
  6
Continuous
 62
     7
370
    18
100
AcDbMText
 10
129.8277943971
 20
134.8039470515
 30
0.0
 40
3.5
 41
0.0
 71
     1
 72
     1
  1
1,10
  7
SLDTEXTSTYLE0
 73
     1
 44
1.0
  0
MTEXT
  5
1CE
330
1C3
100
AcDbEntity
  8
0
  6
Continuous
 62
     7
370
    18
100
AcDbMText
 10
140.191683458
 20
134.8039470515
 30
0.0
 40
3.5
 41
0.0
 71
     1
 72
     1
  1

  7
SLDTEXTSTYLE0
 73
     1
 44
1.0
  0
MTEXT
  5
1CF
330
1C3
100
AcDbEntity
  8
0
  6
Continuous
 62
     7
370
    18
100
AcDbMText
 10
140.1722391712
 20
139.2761694053
 30
0.0
 40
3.5
 41
0.0
 71
     1
 72
     1
  1
H13
  7
SLDTEXTSTYLE0
 73
     1
 44
1.0
  0
MTEXT
  5
1D0
330
1C3
100
AcDbEntity
  8
0
  6
Continuous
 62
     7
370
    18
100
AcDbMText
 10
145.0187670704
 20
134.7504748749
 30
0.0
 40
3.5
 41
0.0
 71
     1
 72
     1
  1

  7
SLDTEXTSTYLE0
 73
     1
 44
1.0
  0
MTEXT
  5
1D1
330
1C3
100
AcDbEntity
  8
0
  6
Continuous
 62
     7
370
    18
100
AcDbMText
 10
149.8458505663
 20
134.8039470515
 30
0.0
 40
3.5
 41
0.0
 71
     1
 72
     1
  1

  7
SLDTEXTSTYLE0
 73
     1
 44
1.0
  0
MTEXT
  5
1D2
330
1C3
100
AcDbEntity
  8
0
  6
Continuous
 62
     7
370
    18
100
AcDbMText
 10
149.8264062794
 20
139.2761694053
 30
0.0
 40
3.5
 41
0.0
 71
     1
 72
     1
  1
+
  7
SLDTEXTSTYLE0
 73
     1
 44
1.0
  0
MTEXT
  5
1D3
330
1C3
100
AcDbEntity
  8
0
  6
Continuous
 62
     7
370
    18
100
AcDbMText
 10
151.9069617785
 20
134.7504748749
 30
0.0
 40
3.5
 41
0.0
 71
     1
 72
     1
  1

  7
SLDTEXTSTYLE0
 73
     1
 44
1.0
  0
MTEXT
  5
1D4
330
1C3
100
AcDbEntity
  8
0
  6
Continuous
 62
     7
370
    18
100
AcDbMText
 10
152.6555724087
 20
139.2761694053
 30
0.0
 40
3.5
 41
0.0
 71
     1
 72
     1
  1
0,14
  7
SLDTEXTSTYLE0
 73
     1
 44
1.0
  0
MTEXT
  5
1D5
330
1C3
100
AcDbEntity
  8
0
  6
Continuous
 62
     7
370
    18
100
AcDbMText
 10
152.6555724087
 20
134.7504748749
 30
0.0
 40
3.5
 41
0.0
 71
     1
 72
     1
  1
0
  7
SLDTEXTSTYLE0
 73
     1
 44
1.0
  0
ENDBLK
  5
1C5
330
1C3
100
AcDbEntity
  8
0
100
AcDbBlockEnd
  0
BLOCK
  5
1D8
330
1D7
100
AcDbEntity
  8
0
100
AcDbBlockBegin
  2
_D_7
 70
     0
 10
0.0
 20
0.0
 30
0.0
  3
_D_7
  1

  0
SOLID
  5
1DA
330
1D7
100
AcDbEntity
  8
0
  6
Continuous
 62
     7
370
    18
100
AcDbTrace
 10
112.7191391079
 20
139.1493327307
 30
0.0
 11
116.0211391079
 21
138.6413327307
 31
0.0
 12
116.0211391079
 22
139.6573327307
 32
0.0
 13
116.0211391079
 23
139.6573327307
 33
0.0
  0
SOLID
  5
1DB
330
1D7
100
AcDbEntity
  8
0
  6
Continuous
 62
     7
370
    18
100
AcDbTrace
 10
111.6191391079
 20
139.1493327307
 30
0.0
 11
108.3171391079
 21
139.6573327307
 31
0.0
 12
108.3171391079
 22
138.6413327307
 32
0.0
 13
108.3171391079
 23
138.6413327307
 33
0.0
  0
LINE
  5
1DC
330
1D7
100
AcDbEntity
  8
0
  6
Continuous
 62
     7
370
    18
100
AcDbLine
 10
112.7191391079
 20
109.1493327308
 30
0.0
 11
112.7191391079
 21
140.1493327307
 31
0.0
  0
LINE
  5
1DD
330
1D7
100
AcDbEntity
  8
0
  6
Continuous
 62
     7
370
    18
100
AcDbLine
 10
111.6191391079
 20
109.1493327308
 30
0.0
 11
111.6191391079
 21
140.1493327307
 31
0.0
  0
LINE
  5
1DE
330
1D7
100
AcDbEntity
  8
0
  6
Continuous
 62
     7
370
    18
100
AcDbLine
 10
112.7191391079
 20
139.1493327307
 30
0.0
 11
119.0691391079
 21
139.1493327307
 31
0.0
  0
LINE
  5
1DF
330
1D7
100
AcDbEntity
  8
0
  6
Continuous
 62
     7
370
    18
100
AcDbLine
 10
112.7191391079
 20
139.1493327307
 30
0.0
 11
111.6191391079
 21
139.1493327307
 31
0.0
  0
LINE
  5
1E0
330
1D7
100
AcDbEntity
  8
0
  6
Continuous
 62
     7
370
    18
100
AcDbLine
 10
111.6191391079
 20
139.1493327307
 30
0.0
 11
100.2398877222
 21
139.1493327307
 31
0.0
  0
MTEXT
  5
1E1
330
1D7
100
AcDbEntity
  8
0
  6
Continuous
 62
     7
370
    18
100
AcDbMText
 10
100.2398877222
 20
143.6610696453
 30
0.0
 40
3.5
 41
0.0
 71
     1
 72
     1
  1
1,10
  7
SLDTEXTSTYLE0
 73
     1
 44
1.0
  0
ENDBLK
  5
1D9
330
1D7
100
AcDbEntity
  8
0
100
AcDbBlockEnd
  0
BLOCK
  5
1E4
330
1E3
100
AcDbEntity
  8
0
100
AcDbBlockBegin
  2
_D_8
 70
     0
 10
0.0
 20
0.0
 30
0.0
  3
_D_8
  1

  0
SOLID
  5
1E6
330
1E3
100
AcDbEntity
  8
0
  6
Continuous
 62
     7
370
    18
100
AcDbTrace
 10
82.5944269525
 20
100.5493327308
 30
0.0
 11
82.0864269525
 21
97.2473327308
 31
0.0
 12
83.1024269525
 22
97.2473327308
 32
0.0
 13
83.1024269525
 23
97.2473327308
 33
0.0
  0
SOLID
  5
1E7
330
1E3
100
AcDbEntity
  8
0
  6
Continuous
 62
     7
370
    18
100
AcDbTrace
 10
82.5944269525
 20
115.7493327308
 30
0.0
 11
83.1024269525
 21
119.0513327308
 31
0.0
 12
82.0864269525
 22
119.0513327308
 32
0.0
 13
82.0864269525
 23
119.0513327308
 33
0.0
  0
LINE
  5
1E8
330
1E3
100
AcDbEntity
  8
0
  6
Continuous
 62
     7
370
    18
100
AcDbLine
 10
111.7191391079
 20
100.5493327308
 30
0.0
 11
81.5944269525
 21
100.5493327308
 31
0.0
  0
LINE
  5
1E9
330
1E3
100
AcDbEntity
  8
0
  6
Continuous
 62
     7
370
    18
100
AcDbLine
 10
111.7191391079
 20
115.7493327308
 30
0.0
 11
81.5944269525
 21
115.7493327308
 31
0.0
  0
LINE
  5
1EA
330
1E3
100
AcDbEntity
  8
0
  6
Continuous
 62
     7
370
    18
100
AcDbLine
 10
82.5944269525
 20
100.5493327308
 30
0.0
 11
82.5944269525
 21
94.1993327308
 31
0.0
  0
LINE
  5
1EB
330
1E3
100
AcDbEntity
  8
0
  6
Continuous
 62
     7
370
    18
100
AcDbLine
 10
82.5944269525
 20
100.5493327308
 30
0.0
 11
82.5944269525
 21
115.7493327308
 31
0.0
  0
LINE
  5
1EC
330
1E3
100
AcDbEntity
  8
0
  6
Continuous
 62
     7
370
    18
100
AcDbLine
 10
82.5944269525
 20
115.7493327308
 30
0.0
 11
82.5944269525
 21
100.9341794991
 31
0.0
  0
MTEXT
  5
1ED
330
1E3
100
AcDbEntity
  8
0
  6
Continuous
 62
     7
370
    18
100
AcDbMText
 10
78.0826898633
 20
100.9341794991
 30
0.0
 40
3.5
 41
0.0
 71
     1
 72
     1
  1
%%c
  7
SLDTEXTSTYLE0
 11
6.123233995736766E-17
 21
1.0
 31
0.0
 73
     1
 44
1.0
  0
MTEXT
  5
1EE
330
1E3
100
AcDbEntity
  8
0
  6
Continuous
 62
     7
370
    18
100
AcDbMText
 10
78.0292176866
 20
106.2126168974
 30
0.0
 40
3.5
 41
0.0
 71
     1
 72
     1
  1
15,20
  7
SLDTEXTSTYLE0
 11
6.123233995736766E-17
 21
1.0
 31
0.0
 73
     1
 44
1.0
  0
ENDBLK
  5
1E5
330
1E3
100
AcDbEntity
  8
0
100
AcDbBlockEnd
  0
BLOCK
  5
1F2
330
1F1
100
AcDbEntity
  8
0
100
AcDbBlockBegin
  2
_D_9
 70
     0
 10
0.0
 20
0.0
 30
0.0
  3
_D_9
  1

  0
SOLID
  5
1F4
330
1F1
100
AcDbEntity
  8
0
  6
Continuous
 62
     7
370
    18
100
AcDbTrace
 10
111.8191391079
 20
90.0699256337
 30
0.0
 11
115.1211391079
 21
89.5619256337
 31
0.0
 12
115.1211391079
 22
90.5779256337
 32
0.0
 13
115.1211391079
 23
90.5779256337
 33
0.0
  0
SOLID
  5
1F5
330
1F1
100
AcDbEntity
  8
0
  6
Continuous
 62
     7
370
    18
100
AcDbTrace
 10
111.6191391079
 20
90.0699256337
 30
0.0
 11
108.3171391079
 21
90.5779256337
 31
0.0
 12
108.3171391079
 22
89.5619256337
 32
0.0
 13
108.3171391079
 23
89.5619256337
 33
0.0
  0
LINE
  5
1F6
330
1F1
100
AcDbEntity
  8
0
  6
Continuous
 62
     7
370
    18
100
AcDbLine
 10
111.8191391079
 20
115.1493327307
 30
0.0
 11
111.8191391079
 21
89.0699256337
 31
0.0
  0
LINE
  5
1F7
330
1F1
100
AcDbEntity
  8
0
  6
Continuous
 62
     7
370
    18
100
AcDbLine
 10
111.6191391079
 20
115.1493327307
 30
0.0
 11
111.6191391079
 21
89.0699256337
 31
0.0
  0
LINE
  5
1F8
330
1F1
100
AcDbEntity
  8
0
  6
Continuous
 62
     7
370
    18
100
AcDbLine
 10
111.8191391079
 20
90.0699256337
 30
0.0
 11
118.1691391079
 21
90.0699256337
 31
0.0
  0
LINE
  5
1F9
330
1F1
100
AcDbEntity
  8
0
  6
Continuous
 62
     7
370
    18
100
AcDbLine
 10
111.8191391079
 20
90.0699256337
 30
0.0
 11
111.6191391079
 21
90.0699256337
 31
0.0
  0
LINE
  5
1FA
330
1F1
100
AcDbEntity
  8
0
  6
Continuous
 62
     7
370
    18
100
AcDbLine
 10
111.6191391079
 20
90.0699256337
 30
0.0
 11
89.2425337925
 21
90.0699256337
 31
0.0
  0
MTEXT
  5
1FB
330
1F1
100
AcDbEntity
  8
0
  6
Continuous
 62
     7
370
    18
100
AcDbMText
 10
89.2425337925
 20
94.5816625483
 30
0.0
 40
3.5
 41
0.0
 71
     1
 72
     1
  1
0,20
  7
SLDTEXTSTYLE0
 73
     1
 44
1.0
  0
ENDBLK
  5
1F3
330
1F1
100
AcDbEntity
  8
0
100
AcDbBlockEnd
  0
BLOCK
  5
1FF
330
1FE
100
AcDbEntity
  8
0
100
AcDbBlockBegin
  2
_D_10
 70
     0
 10
0.0
 20
0.0
 30
0.0
  3
_D_10
  1

  0
ARC
  5
201
330
1FE
100
AcDbEntity
  8
0
  6
Continuous
 62
     7
370
    18
100
AcDbCircle
 10
111.8191391079
 20
116.1493327307
 30
0.0
 40
17.14840257656262
100
AcDbArc
 50
180.0
 51
225.0
  0
ARC
  5
202
330
1FE
100
AcDbEntity
  8
0
  6
Continuous
 62
     7
370
    18
100
AcDbCircle
 10
111.8191391079
 20
116.1493327307
 30
0.0
 40
17.14840257656262
100
AcDbArc
 50
159.0901896976
 51
180.0
  0
ARC
  5
203
330
1FE
100
AcDbEntity
  8
0
  6
Continuous
 62
     7
370
    18
100
AcDbCircle
 10
111.8191391079
 20
116.1493327307
 30
0.0
 40
17.14840257656263
100
AcDbArc
 50
225.0
 51
245.9098103024
  0
SOLID
  5
204
330
1FE
100
AcDbEntity
  8
0
  6
Continuous
 62
     7
370
    18
100
AcDbTrace
 10
94.6707365314
 20
116.1493327307
 30
0.0
 11
95.4900305369
 21
119.3881635896
 31
0.0
 12
94.4786226947
 22
119.4846528463
 32
0.0
 13
94.4786226947
 23
119.4846528463
 33
0.0
  0
SOLID
  5
205
330
1FE
100
AcDbEntity
  8
0
  6
Continuous
 62
     7
370
    18
100
AcDbTrace
 10
99.6933873595
 20
104.0235809823
 30
0.0
 11
101.9159698341
 21
101.5293085144
 31
0.0
 12
102.5629149701
 22
102.312710066
 32
0.0
 13
102.5629149701
 23
102.312710066
 33
0.0
  0
LINE
  5
206
330
1FE
100
AcDbEntity
  8
0
  6
Continuous
 62
     7
370
    18
100
AcDbLine
 10
110.8191391079
 20
116.1493327307
 30
0.0
 11
93.6707365314
 21
116.1493327307
 31
0.0
  0
LINE
  5
207
330
1FE
100
AcDbEntity
  8
0
  6
Continuous
 62
     7
370
    18
100
AcDbLine
 10
111.1120323267
 20
115.4422259495
 30
0.0
 11
98.9862805783
 21
103.3164742011
 31
0.0
  0
MTEXT
  5
208
330
1FE
100
AcDbEntity
  8
0
  6
Continuous
 62
     7
370
    18
100
AcDbMText
 10
98.7271430719
 20
115.3299131865
 30
0.0
 40
3.5
 41
0.0
 71
     1
 72
     1
  1
45°
  7
SLDTEXTSTYLE0
 11
0.3279519442241703
 21
-0.9446944068213735
 31
0.0
 73
     1
 44
1.0
  0
ENDBLK
  5
200
330
1FE
100
AcDbEntity
  8
0
100
AcDbBlockEnd
  0
BLOCK
  5
20B
330
20A
100
AcDbEntity
  8
0
100
AcDbBlockBegin
  2
_D_11
 70
     0
 10
0.0
 20
0.0
 30
0.0
  3
_D_11
  1

  0
SOLID
  5
20D
330
20A
100
AcDbEntity
  8
0
  6
Continuous
 62
     7
370
    18
100
AcDbTrace
 10
164.3191391079
 20
86.5861100907
 30
0.0
 11
167.6211391079
 21
86.0781100907
 31
0.0
 12
167.6211391079
 22
87.0941100907
 32
0.0
 13
167.6211391079
 23
87.0941100907
 33
0.0
  0
SOLID
  5
20E
330
20A
100
AcDbEntity
  8
0
  6
Continuous
 62
     7
370
    18
100
AcDbTrace
 10
163.3191391079
 20
86.5861100907
 30
0.0
 11
160.0171391079
 21
87.0941100907
 31
0.0
 12
160.0171391079
 22
86.0781100907
 32
0.0
 13
160.0171391079
 23
86.0781100907
 33
0.0
  0
LINE
  5
20F
330
20A
100
AcDbEntity
  8
0
  6
Continuous
 62
     7
370
    18
100
AcDbLine
 10
164.3191391079
 20
100.1493327309
 30
0.0
 11
164.3191391079
 21
85.5861100907
 31
0.0
  0
LINE
  5
210
330
20A
100
AcDbEntity
  8
0
  6
Continuous
 62
     7
370
    18
100
AcDbLine
 10
163.3191391079
 20
115.1493327307
 30
0.0
 11
163.3191391079
 21
85.5861100907
 31
0.0
  0
LINE
  5
211
330
20A
100
AcDbEntity
  8
0
  6
Continuous
 62
     7
370
    18
100
AcDbLine
 10
164.3191391079
 20
86.5861100907
 30
0.0
 11
199.6121947047
 21
86.5861100907
 31
0.0
  0
LINE
  5
212
330
20A
100
AcDbEntity
  8
0
  6
Continuous
 62
     7
370
    18
100
AcDbLine
 10
164.3191391079
 20
86.5861100907
 30
0.0
 11
163.3191391079
 21
86.5861100907
 31
0.0
  0
LINE
  5
213
330
20A
100
AcDbEntity
  8
0
  6
Continuous
 62
     7
370
    18
100
AcDbLine
 10
163.3191391079
 20
86.5861100907
 30
0.0
 11
156.9691391079
 21
86.5861100907
 31
0.0
  0
MTEXT
  5
214
330
20A
100
AcDbEntity
  8
0
  6
Continuous
 62
     7
370
    18
100
AcDbMText
 10
197.0260835112
 20
91.0978470052
 30
0.0
 40
3.5
 41
0.0
 71
     1
 72
     1
  1
1
  7
SLDTEXTSTYLE0
 73
     1
 44
1.0
  0
ENDBLK
  5
20C
330
20A
100
AcDbEntity
  8
0
100
AcDbBlockEnd
  0
BLOCK
  5
217
330
216
100
AcDbEntity
  8
0
100
AcDbBlockBegin
  2
_D_12
 70
     0
 10
0.0
 20
0.0
 30
0.0
  3
_D_12
  1

  0
ARC
  5
219
330
216
100
AcDbEntity
  8
0
  6
Continuous
 62
     7
370
    18
100
AcDbCircle
 10
164.3191391079
 20
115.1493327307
 30
0.0
 40
20.32032710370557
100
AcDbArc
 50
270.0
 51
315.0
  0
SOLID
  5
21A
330
216
100
AcDbEntity
  8
0
  6
Continuous
 62
     7
370
    18
100
AcDbTrace
 10
164.3191391079
 20
94.829005627
 30
0.0
 11
167.6513065952
 21
94.5883236022
 31
0.0
 12
167.5695616552
 22
95.6010297614
 32
0.0
 13
167.5695616552
 23
95.6010297614
 33
0.0
  0
SOLID
  5
21B
330
216
100
AcDbEntity
  8
0
  6
Continuous
 62
     7
370
    18
100
AcDbTrace
 10
178.6877801989
 20
100.7806916397
 30
0.0
 11
175.8434808733
 21
99.0281993155
 31
0.0
 12
176.5017698644
 22
98.2543055216
 32
0.0
 13
176.5017698644
 23
98.2543055216
 33
0.0
  0
LINE
  5
21C
330
216
100
AcDbEntity
  8
0
  6
Continuous
 62
     7
370
    18
100
AcDbLine
 10
164.3191391079
 20
100.1493327309
 30
0.0
 11
164.3191391079
 21
93.829005627
 31
0.0
  0
LINE
  5
21D
330
216
100
AcDbEntity
  8
0
  6
Continuous
 62
     7
370
    18
100
AcDbLine
 10
165.0262458891
 20
114.4422259495
 30
0.0
 11
179.3948869801
 21
100.0735848585
 31
0.0
  0
MTEXT
  5
21E
330
216
100
AcDbEntity
  8
0
  6
Continuous
 62
     7
370
    18
100
AcDbMText
 10
166.6324951149
 20
99.1197850984
 30
0.0
 40
3.5
 41
0.0
 71
     1
 72
     1
  1
45°
  7
SLDTEXTSTYLE0
 11
0.935054056566564
 21
0.3545051639940002
 31
0.0
 73
     1
 44
1.0
  0
ENDBLK
  5
218
330
216
100
AcDbEntity
  8
0
100
AcDbBlockEnd
  0
ENDSEC
  0
SECTION
  2
ENTITIES
  0
LINE
  5
BB
330
1F
100
AcDbEntity
  8
0
  6
Continuous
 62
     7
370
    70
100
AcDbLine
 10
20.0
 20
10.0
 30
0.0
 11
20.0
 21
287.0
 31
0.0
  0
LINE
  5
BC
330
1F
100
AcDbEntity
  8
0
  6
Continuous
 62
     7
370
    70
100
AcDbLine
 10
20.0
 20
287.0
 30
0.0
 11
410.0
 21
287.0
 31
0.0
  0
LINE
  5
BD
330
1F
100
AcDbEntity
  8
0
  6
Continuous
 62
     7
370
    70
100
AcDbLine
 10
410.0
 20
287.0
 30
0.0
 11
410.0
 21
10.0
 31
0.0
  0
LINE
  5
BE
330
1F
100
AcDbEntity
  8
0
  6
Continuous
 62
     7
370
    70
100
AcDbLine
 10
410.0
 20
10.0
 30
0.0
 11
20.0
 21
10.0
 31
0.0
  0
LINE
  5
BF
330
1F
100
AcDbEntity
  8
0
  6
Continuous
 62
     7
370
    70
100
AcDbLine
 10
15.0
 20
5.0
 30
0.0
 11
15.0
 21
292.0
 31
0.0
  0
LINE
  5
C0
330
1F
100
AcDbEntity
  8
0
  6
Continuous
 62
     7
370
    70
100
AcDbLine
 10
15.0
 20
292.0
 30
0.0
 11
415.0
 21
292.0
 31
0.0
  0
LINE
  5
C1
330
1F
100
AcDbEntity
  8
0
  6
Continuous
 62
     7
370
    70
100
AcDbLine
 10
415.0
 20
292.0
 30
0.0
 11
415.0
 21
5.0
 31
0.0
  0
LINE
  5
C2
330
1F
100
AcDbEntity
  8
0
  6
Continuous
 62
     7
370
    70
100
AcDbLine
 10
415.0
 20
5.0
 30
0.0
 11
15.0
 21
5.0
 31
0.0
  0
LINE
  5
C3
330
1F
100
AcDbEntity
  8
0
  6
Continuous
 62
     7
370
    35
100
AcDbLine
 10
15.0
 20
148.5
 30
0.0
 11
25.0
 21
148.5
 31
0.0
  0
LINE
  5
C4
330
1F
100
AcDbEntity
  8
0
  6
Continuous
 62
     7
370
    35
100
AcDbLine
 10
215.0
 20
292.0
 30
0.0
 11
215.0
 21
282.0
 31
0.0
  0
LINE
  5
C5
330
1F
100
AcDbEntity
  8
0
  6
Continuous
 62
     7
370
    35
100
AcDbLine
 10
415.0
 20
148.5
 30
0.0
 11
405.0
 21
148.5
 31
0.0
  0
LINE
  5
C6
330
1F
100
AcDbEntity
  8
0
  6
Continuous
 62
     7
370
    35
100
AcDbLine
 10
215.0
 20
5.0
 30
0.0
 11
215.0
 21
15.0
 31
0.0
  0
LINE
  5
C7
330
1F
100
AcDbEntity
  8
0
  6
Continuous
 62
     7
370
    35
100
AcDbLine
 10
20.0
 20
48.5
 30
0.0
 11
15.0
 21
48.5
 31
0.0
  0
LINE
  5
C8
330
1F
100
AcDbEntity
  8
0
  6
Continuous
 62
     7
370
    35
100
AcDbLine
 10
410.0
 20
48.5
 30
0.0
 11
415.0
 21
48.5
 31
0.0
  0
LINE
  5
C9
330
1F
100
AcDbEntity
  8
0
  6
Continuous
 62
     7
370
    35
100
AcDbLine
 10
20.0
 20
98.5
 30
0.0
 11
15.0
 21
98.5
 31
0.0
  0
LINE
  5
CA
330
1F
100
AcDbEntity
  8
0
  6
Continuous
 62
     7
370
    35
100
AcDbLine
 10
410.0
 20
98.5
 30
0.0
 11
415.0
 21
98.5
 31
0.0
  0
LINE
  5
CB
330
1F
100
AcDbEntity
  8
0
  6
Continuous
 62
     7
370
    35
100
AcDbLine
 10
20.0
 20
148.5
 30
0.0
 11
15.0
 21
148.5
 31
0.0
  0
LINE
  5
CC
330
1F
100
AcDbEntity
  8
0
  6
Continuous
 62
     7
370
    35
100
AcDbLine
 10
410.0
 20
148.5
 30
0.0
 11
415.0
 21
148.5
 31
0.0
  0
LINE
  5
CD
330
1F
100
AcDbEntity
  8
0
  6
Continuous
 62
     7
370
    35
100
AcDbLine
 10
20.0
 20
198.5
 30
0.0
 11
15.0
 21
198.5
 31
0.0
  0
LINE
  5
CE
330
1F
100
AcDbEntity
  8
0
  6
Continuous
 62
     7
370
    35
100
AcDbLine
 10
410.0
 20
198.5
 30
0.0
 11
415.0
 21
198.5
 31
0.0
  0
LINE
  5
CF
330
1F
100
AcDbEntity
  8
0
  6
Continuous
 62
     7
370
    35
100
AcDbLine
 10
20.0
 20
248.5
 30
0.0
 11
15.0
 21
248.5
 31
0.0
  0
LINE
  5
D0
330
1F
100
AcDbEntity
  8
0
  6
Continuous
 62
     7
370
    35
100
AcDbLine
 10
410.0
 20
248.5
 30
0.0
 11
415.0
 21
248.5
 31
0.0
  0
LINE
  5
D1
330
1F
100
AcDbEntity
  8
0
  6
Continuous
 62
     7
370
    35
100
AcDbLine
 10
65.0
 20
287.0
 30
0.0
 11
65.0
 21
292.0
 31
0.0
  0
LINE
  5
D2
330
1F
100
AcDbEntity
  8
0
  6
Continuous
 62
     7
370
    35
100
AcDbLine
 10
65.0
 20
10.0
 30
0.0
 11
65.0
 21
5.0
 31
0.0
  0
LINE
  5
D3
330
1F
100
AcDbEntity
  8
0
  6
Continuous
 62
     7
370
    35
100
AcDbLine
 10
115.0
 20
287.0
 30
0.0
 11
115.0
 21
292.0
 31
0.0
  0
LINE
  5
D4
330
1F
100
AcDbEntity
  8
0
  6
Continuous
 62
     7
370
    35
100
AcDbLine
 10
115.0
 20
10.0
 30
0.0
 11
115.0
 21
5.0
 31
0.0
  0
LINE
  5
D5
330
1F
100
AcDbEntity
  8
0
  6
Continuous
 62
     7
370
    35
100
AcDbLine
 10
165.0
 20
287.0
 30
0.0
 11
165.0
 21
292.0
 31
0.0
  0
LINE
  5
D6
330
1F
100
AcDbEntity
  8
0
  6
Continuous
 62
     7
370
    35
100
AcDbLine
 10
165.0
 20
10.0
 30
0.0
 11
165.0
 21
5.0
 31
0.0
  0
LINE
  5
D7
330
1F
100
AcDbEntity
  8
0
  6
Continuous
 62
     7
370
    35
100
AcDbLine
 10
215.0
 20
287.0
 30
0.0
 11
215.0
 21
292.0
 31
0.0
  0
LINE
  5
D8
330
1F
100
AcDbEntity
  8
0
  6
Continuous
 62
     7
370
    35
100
AcDbLine
 10
215.0
 20
10.0
 30
0.0
 11
215.0
 21
5.0
 31
0.0
  0
LINE
  5
D9
330
1F
100
AcDbEntity
  8
0
  6
Continuous
 62
     7
370
    35
100
AcDbLine
 10
265.0
 20
287.0
 30
0.0
 11
265.0
 21
292.0
 31
0.0
  0
LINE
  5
DA
330
1F
100
AcDbEntity
  8
0
  6
Continuous
 62
     7
370
    35
100
AcDbLine
 10
265.0
 20
10.0
 30
0.0
 11
265.0
 21
5.0
 31
0.0
  0
LINE
  5
DB
330
1F
100
AcDbEntity
  8
0
  6
Continuous
 62
     7
370
    35
100
AcDbLine
 10
315.0
 20
287.0
 30
0.0
 11
315.0
 21
292.0
 31
0.0
  0
LINE
  5
DC
330
1F
100
AcDbEntity
  8
0
  6
Continuous
 62
     7
370
    35
100
AcDbLine
 10
315.0
 20
10.0
 30
0.0
 11
315.0
 21
5.0
 31
0.0
  0
LINE
  5
DD
330
1F
100
AcDbEntity
  8
0
  6
Continuous
 62
     7
370
    35
100
AcDbLine
 10
365.0
 20
287.0
 30
0.0
 11
365.0
 21
292.0
 31
0.0
  0
LINE
  5
DE
330
1F
100
AcDbEntity
  8
0
  6
Continuous
 62
     7
370
    35
100
AcDbLine
 10
365.0
 20
10.0
 30
0.0
 11
365.0
 21
5.0
 31
0.0
  0
INSERT
  5
DF
330
1F
100
AcDbEntity
  8
0
  6
Continuous
 62
     7
100
AcDbBlockReference
 66
     1
  2
Bloc cartouche polivalent
 10
-173.6020953532
 20
-0.5588035661
 30
0.0
  0
ATTRIB
  5
E0
330
DF
100
AcDbEntity
  8
0
  6
Continuous
 62
     7
370
     0
100
AcDbText
 10
330.0697121258
 20
11.5569564537
 30
0.0
 40
1.5
  1
ECHELLE:1:1
 41
0.75
  7
SLDTEXTSTYLE0
 11
330.0697121258
 21
11.0270663608
 31
0.0
100
AcDbAttribute
  2
AUTOATTR18
 70
     0
 74
     1
  0
ATTRIB
  5
E1
330
DF
100
AcDbEntity
  8
0
  6
Continuous
 62
     7
370
     0
100
AcDbText
 10
374.4740404361
 20
11.5569564537
 30
0.0
 40
1.5
  1
FEUILLE: 1 sur 1
 41
0.75
  7
SLDTEXTSTYLE0
 11
374.4740404361
 21
11.0270663608
 31
0.0
100
AcDbAttribute
  2
AUTOATTR17
 70
     0
 74
     1
  0
ATTRIB
  5
E2
330
DF
100
AcDbEntity
  8
0
  6
Continuous
 62
     7
370
     0
100
AcDbText
 10
400.866902443
 20
21.7433790025
 30
0.0
 40
2.9104166667
  1
A3
 41
0.75
  7
SLDTEXTSTYLE0
 11
400.866902443
 21
20.7152450306
 31
0.0
100
AcDbAttribute
  2
AUTOATTR0102
 70
     0
 74
     1
  0
ATTRIB
  5
E3
330
DF
100
AcDbEntity
  8
0
  6
Continuous
 62
     7
370
     0
100
AcDbText
 10
303.9625303637
 20
19.3177544709
 30
0.0
 40
2.38125
  1
inox
 41
0.75
  7
SLDTEXTSTYLE0
 11
303.9625303637
 21
18.4765539484
 31
0.0
100
AcDbAttribute
  2
AUTOATTR16
 70
     0
 74
     1
  0
ATTRIB
  5
E4
330
DF
100
AcDbEntity
  8
0
  6
Continuous
 62
     7
370
     0
100
AcDbText
 10
287.2737880373
 20
55.8133592188
 30
0.0
 40
2.38125
  1

 41
0.75
  7
SLDTEXTSTYLE0
 11
287.2737880373
 21
54.9721586963
 31
0.0
100
AcDbAttribute
  2
AUTOATTR15
 70
     0
 74
     1
  0
ATTRIB
  5
E5
330
DF
100
AcDbEntity
  8
0
  6
Continuous
 62
     7
370
     0
100
AcDbText
 10
285.6135571365
 20
11.6074912135
 30
0.0
 40
1.4986
  1
MASSE: 
 41
0.75
  7
SLDTEXTSTYLE0
 11
285.6135571365
 21
11.0780956847
 31
0.0
100
AcDbAttribute
  2
AUTOATTR14
 70
     0
 74
     1
  0
ATTRIB
  5
E6
330
DF
100
AcDbEntity
  8
0
  6
Continuous
 62
     7
370
     0
100
AcDbText
 10
362.1984033048
 20
51.9752393172
 30
0.0
 40
5.08
  1
Lauriou
 41
0.663
  7
SLDTEXTSTYLE1
 11
362.1984033048
 21
50.1806782026
 31
0.0
100
AcDbAttribute
  2
AUTOATTR3
 70
     0
 74
     1
  0
ATTRIB
  5
E7
330
DF
100
AcDbEntity
  8
0
  6
Continuous
 62
     7
370
     0
100
AcDbText
 10
334.3518785111
 20
20.4840679537
 30
0.0
 40
3.175
  1
support vérin cuve de pesage
 41
0.75
  7
SLDTEXTSTYLE0
 11
334.3518785111
 21
19.3624672571
 31
0.0
100
AcDbAttribute
  2
AUTOATTR2
 70
     0
 74
     1
  0
ATTRIB
  5
E8
330
DF
100
AcDbEntity
  8
0
  6
Continuous
 62
     7
370
     0
100
AcDbText
 10
379.0995368057
 20
38.5893538633
 30
0.0
 40
6.35
  1

 41
0.75
  7
SLDTEXTSTYLE0
 11
379.0995368057
 21
36.3461524701
 31
0.0
100
AcDbAttribute
  2
AUTOATTR101
 70
     0
 74
     1
  0
ATTRIB
  5
E9
330
DF
100
AcDbEntity
  8
0
  6
Continuous
 62
     7
370
     0
100
AcDbText
 10
395.2310027459
 20
61.0223480848
 30
0.0
 40
1.905
  1
23/02/2022
 41
0.75
  7
SLDTEXTSTYLE0
 11
395.2310027459
 21
60.3493876668
 31
0.0
100
AcDbAttribute
  2
AUTOATTR0
 70
     0
 74
     1
  0
ATTRIB
  5
EA
330
DF
100
AcDbEntity
  8
0
  6
Continuous
 62
     7
370
     0
100
AcDbText
 10
294.807003607
 20
11.6188666725
 30
0.0
 40
2.1166666667
  1
179.48
 41
0.75
  7
SLDTEXTSTYLE0
 11
294.807003607
 21
10.8711328748
 31
0.0
100
AcDbAttribute
  2
AUTOATTR1
 70
     0
 74
     1
  0
ATTRIB
  5
EB
330
DF
100
AcDbEntity
  8
0
  6
Continuous
 62
     7
370
     0
100
AcDbText
 10
352.4191817078
 20
11.568226234
 30
0.0
 40
2.1166666667
  1
08/02/2022
 41
0.75
  7
SLDTEXTSTYLE0
 11
352.4191817078
 21
10.8204924363
 31
0.0
100
AcDbAttribute
  2
AUTOATTR4
 70
     0
 74
     1
  0
ATTRIB
  5
EC
330
DF
100
AcDbEntity
  8
0
  6
Continuous
 62
     7
370
     0
100
AcDbText
 10
311.3343277798
 20
44.6661190988
 30
0.0
 40
2.1166666667
  1
2
 41
0.75
  7
SLDTEXTSTYLE0
 11
311.3343277798
 21
43.9183853011
 31
0.0
100
AcDbAttribute
  2
AUTOATTR5
 70
     0
 74
     1
  0
SEQEND
  5
ED
330
DF
100
AcDbEntity
  8
0
  6
Continuous
 62
     7
  0
MTEXT
  5
EE
330
1F
100
AcDbEntity
  8
0
  6
Continuous
 62
     7
370
     0
100
AcDbMText
 10
17.3396881428
 20
31.675476826
 30
0.0
 40
3.96875
 41
0.0
 71
     2
 72
     1
  1
A
  7
SLDTEXTSTYLE0
 73
     1
 44
1.0
  0
MTEXT
  5
EF
330
1F
100
AcDbEntity
  8
0
  6
Continuous
 62
     7
370
     0
100
AcDbMText
 10
412.3396881428
 20
31.675476826
 30
0.0
 40
3.96875
 41
0.0
 71
     2
 72
     1
  1
A
  7
SLDTEXTSTYLE0
 73
     1
 44
1.0
  0
MTEXT
  5
F0
330
1F
100
AcDbEntity
  8
0
  6
Continuous
 62
     7
370
     0
100
AcDbMText
 10
17.4706018241
 20
75.9832802942
 30
0.0
 40
3.96875
 41
0.0
 71
     2
 72
     1
  1
B
  7
SLDTEXTSTYLE0
 73
     1
 44
1.0
  0
MTEXT
  5
F1
330
1F
100
AcDbEntity
  8
0
  6
Continuous
 62
     7
370
     0
100
AcDbMText
 10
412.4706018241
 20
75.9832802942
 30
0.0
 40
3.96875
 41
0.0
 71
     2
 72
     1
  1
B
  7
SLDTEXTSTYLE0
 73
     1
 44
1.0
  0
MTEXT
  5
F2
330
1F
100
AcDbEntity
  8
0
  6
Continuous
 62
     7
370
     0
100
AcDbMText
 10
17.458658902
 20
125.9832802942
 30
0.0
 40
3.96875
 41
0.0
 71
     2
 72
     1
  1
C
  7
SLDTEXTSTYLE0
 73
     1
 44
1.0
  0
MTEXT
  5
F3
330
1F
100
AcDbEntity
  8
0
  6
Continuous
 62
     7
370
     0
100
AcDbMText
 10
412.458658902
 20
125.9832802942
 30
0.0
 40
3.96875
 41
0.0
 71
     2
 72
     1
  1
C
  7
SLDTEXTSTYLE0
 73
     1
 44
1.0
  0
MTEXT
  5
F4
330
1F
100
AcDbEntity
  8
0
  6
Continuous
 62
     7
370
     0
100
AcDbMText
 10
17.4526872821
 20
175.9832802942
 30
0.0
 40
3.96875
 41
0.0
 71
     2
 72
     1
  1
D
  7
SLDTEXTSTYLE0
 73
     1
 44
1.0
  0
MTEXT
  5
F5
330
1F
100
AcDbEntity
  8
0
  6
Continuous
 62
     7
370
     0
100
AcDbMText
 10
412.4526872821
 20
175.9832802942
 30
0.0
 40
3.96875
 41
0.0
 71
     2
 72
     1
  1
D
  7
SLDTEXTSTYLE0
 73
     1
 44
1.0
  0
MTEXT
  5
F6
330
1F
100
AcDbEntity
  8
0
  6
Continuous
 62
     7
370
     0
100
AcDbMText
 10
17.5078089051
 20
225.9832802942
 30
0.0
 40
3.96875
 41
0.0
 71
     2
 72
     1
  1
E
  7
SLDTEXTSTYLE0
 73
     1
 44
1.0
  0
MTEXT
  5
F7
330
1F
100
AcDbEntity
  8
0
  6
Continuous
 62
     7
370
     0
100
AcDbMText
 10
412.5078089051
 20
225.9832802942
 30
0.0
 40
3.96875
 41
0.0
 71
     2
 72
     1
  1
E
  7
SLDTEXTSTYLE0
 73
     1
 44
1.0
  0
MTEXT
  5
F8
330
1F
100
AcDbEntity
  8
0
  6
Continuous
 62
     7
370
     0
100
AcDbMText
 10
17.4577402091
 20
270.175476826
 30
0.0
 40
3.96875
 41
0.0
 71
     2
 72
     1
  1
F
  7
SLDTEXTSTYLE0
 73
     1
 44
1.0
  0
MTEXT
  5
F9
330
1F
100
AcDbEntity
  8
0
  6
Continuous
 62
     7
370
     0
100
AcDbMText
 10
412.4577402091
 20
270.175476826
 30
0.0
 40
3.96875
 41
0.0
 71
     2
 72
     1
  1
F
  7
SLDTEXTSTYLE0
 73
     1
 44
1.0
  0
MTEXT
  5
FA
330
1F
100
AcDbEntity
  8
0
  6
Continuous
 62
     7
370
     0
100
AcDbMText
 10
42.4600369465
 20
9.9832802942
 30
0.0
 40
3.96875
 41
0.0
 71
     2
 72
     1
  1
8
  7
SLDTEXTSTYLE0
 73
     1
 44
1.0
  0
MTEXT
  5
FB
330
1F
100
AcDbEntity
  8
0
  6
Continuous
 62
     7
370
     0
100
AcDbMText
 10
42.4600369465
 20
291.9832802942
 30
0.0
 40
3.96875
 41
0.0
 71
     2
 72
     1
  1
8
  7
SLDTEXTSTYLE0
 73
     1
 44
1.0
  0
MTEXT
  5
FC
330
1F
100
AcDbEntity
  8
0
  6
Continuous
 62
     7
370
     0
100
AcDbMText
 10
89.9600369465
 20
9.9832802942
 30
0.0
 40
3.96875
 41
0.0
 71
     2
 72
     1
  1
7
  7
SLDTEXTSTYLE0
 73
     1
 44
1.0
  0
MTEXT
  5
FD
330
1F
100
AcDbEntity
  8
0
  6
Continuous
 62
     7
370
     0
100
AcDbMText
 10
89.9600369465
 20
291.9832802942
 30
0.0
 40
3.96875
 41
0.0
 71
     2
 72
     1
  1
7
  7
SLDTEXTSTYLE0
 73
     1
 44
1.0
  0
MTEXT
  5
FE
330
1F
100
AcDbEntity
  8
0
  6
Continuous
 62
     7
370
     0
100
AcDbMText
 10
139.9600369465
 20
9.9832802942
 30
0.0
 40
3.96875
 41
0.0
 71
     2
 72
     1
  1
6
  7
SLDTEXTSTYLE0
 73
     1
 44
1.0
  0
MTEXT
  5
FF
330
1F
100
AcDbEntity
  8
0
  6
Continuous
 62
     7
370
     0
100
AcDbMText
 10
139.9600369465
 20
291.9832802942
 30
0.0
 40
3.96875
 41
0.0
 71
     2
 72
     1
  1
6
  7
SLDTEXTSTYLE0
 73
     1
 44
1.0
  0
MTEXT
  5
100
330
1F
100
AcDbEntity
  8
0
  6
Continuous
 62
     7
370
     0
100
AcDbMText
 10
189.9600369465
 20
9.9832802942
 30
0.0
 40
3.96875
 41
0.0
 71
     2
 72
     1
  1
5
  7
SLDTEXTSTYLE0
 73
     1
 44
1.0
  0
MTEXT
  5
101
330
1F
100
AcDbEntity
  8
0
  6
Continuous
 62
     7
370
     0
100
AcDbMText
 10
189.9600369465
 20
291.9832802942
 30
0.0
 40
3.96875
 41
0.0
 71
     2
 72
     1
  1
5
  7
SLDTEXTSTYLE0
 73
     1
 44
1.0
  0
MTEXT
  5
102
330
1F
100
AcDbEntity
  8
0
  6
Continuous
 62
     7
370
     0
100
AcDbMText
 10
239.9600369465
 20
9.9832802942
 30
0.0
 40
3.96875
 41
0.0
 71
     2
 72
     1
  1
4
  7
SLDTEXTSTYLE0
 73
     1
 44
1.0
  0
MTEXT
  5
103
330
1F
100
AcDbEntity
  8
0
  6
Continuous
 62
     7
370
     0
100
AcDbMText
 10
239.9600369465
 20
291.9832802942
 30
0.0
 40
3.96875
 41
0.0
 71
     2
 72
     1
  1
4
  7
SLDTEXTSTYLE0
 73
     1
 44
1.0
  0
MTEXT
  5
104
330
1F
100
AcDbEntity
  8
0
  6
Continuous
 62
     7
370
     0
100
AcDbMText
 10
289.9600369465
 20
9.9832802942
 30
0.0
 40
3.96875
 41
0.0
 71
     2
 72
     1
  1
3
  7
SLDTEXTSTYLE0
 73
     1
 44
1.0
  0
MTEXT
  5
105
330
1F
100
AcDbEntity
  8
0
  6
Continuous
 62
     7
370
     0
100
AcDbMText
 10
289.9600369465
 20
291.9832802942
 30
0.0
 40
3.96875
 41
0.0
 71
     2
 72
     1
  1
3
  7
SLDTEXTSTYLE0
 73
     1
 44
1.0
  0
MTEXT
  5
106
330
1F
100
AcDbEntity
  8
0
  6
Continuous
 62
     7
370
     0
100
AcDbMText
 10
339.9600369465
 20
9.9832802942
 30
0.0
 40
3.96875
 41
0.0
 71
     2
 72
     1
  1
2
  7
SLDTEXTSTYLE0
 73
     1
 44
1.0
  0
MTEXT
  5
107
330
1F
100
AcDbEntity
  8
0
  6
Continuous
 62
     7
370
     0
100
AcDbMText
 10
339.9600369465
 20
291.9832802942
 30
0.0
 40
3.96875
 41
0.0
 71
     2
 72
     1
  1
2
  7
SLDTEXTSTYLE0
 73
     1
 44
1.0
  0
MTEXT
  5
108
330
1F
100
AcDbEntity
  8
0
  6
Continuous
 62
     7
370
     0
100
AcDbMText
 10
387.4600369465
 20
9.9832802942
 30
0.0
 40
3.96875
 41
0.0
 71
     2
 72
     1
  1
1
  7
SLDTEXTSTYLE0
 73
     1
 44
1.0
  0
MTEXT
  5
109
330
1F
100
AcDbEntity
  8
0
  6
Continuous
 62
     7
370
     0
100
AcDbMText
 10
387.4600369465
 20
291.9832802942
 30
0.0
 40
3.96875
 41
0.0
 71
     2
 72
     1
  1
1
  7
SLDTEXTSTYLE0
 73
     1
 44
1.0
  0
LINE
  5
10A
330
1F
100
AcDbEntity
  8
0
  6
Continuous
 62
     7
370
    25
100
AcDbLine
 10
161.3191391079
 20
233.7890834536
 30
0.0
 11
137.8191399126
 21
233.7890834536
 31
0.0
  0
LINE
  5
10B
330
1F
100
AcDbEntity
  8
0
  6
Continuous
 62
     7
370
    25
100
AcDbLine
 10
137.8191399126
 20
203.7890859868
 30
0.0
 11
161.3191391079
 21
203.7890859868
 31
0.0
  0
LINE
  5
10C
330
1F
100
AcDbEntity
  8
0
  6
Continuous
 62
     7
370
    25
100
AcDbLine
 10
137.8191399126
 20
226.7890841688
 30
0.0
 11
113.819139704
 21
226.7890841688
 31
0.0
  0
LINE
  5
10D
330
1F
100
AcDbEntity
  8
0
  6
Continuous
 62
     7
370
    25
100
AcDbLine
 10
113.819139704
 20
210.7890852715
 30
0.0
 11
137.8191399126
 21
210.7890852715
 31
0.0
  0
LINE
  5
10E
330
1F
100
AcDbEntity
  8
0
  6
Continuous
 62
     7
370
    25
100
AcDbLine
 10
112.7191397099
 20
226.7890841688
 30
0.0
 11
111.8191393761
 21
226.7890841688
 31
0.0
  0
LINE
  5
10F
330
1F
100
AcDbEntity
  8
0
  6
Continuous
 62
     7
370
    25
100
AcDbLine
 10
111.8191393761
 20
210.7890852715
 30
0.0
 11
112.7191397099
 21
210.7890852715
 31
0.0
  0
LINE
  5
110
330
1F
100
AcDbEntity
  8
0
  6
Continuous
 62
     7
370
    25
100
AcDbLine
 10
111.8191393761
 20
226.7890841688
 30
0.0
 11
111.6191397159
 21
226.5890845086
 31
0.0
  0
LINE
  5
111
330
1F
100
AcDbEntity
  8
0
  6
Continuous
 62
     7
370
    25
100
AcDbLine
 10
111.6191397159
 20
210.9890849318
 30
0.0
 11
111.8191393761
 21
210.7890852715
 31
0.0
  0
LINE
  5
112
330
1F
100
AcDbEntity
  8
0
  6
Continuous
 62
     7
370
    25
100
AcDbLine
 10
163.3191392029
 20
210.7890852715
 30
0.0
 11
164.319139134
 21
211.7890835728
 31
0.0
  0
LINE
  5
113
330
1F
100
AcDbEntity
  8
0
  6
Continuous
 62
     7
370
    25
100
AcDbLine
 10
164.319139134
 20
225.7890858675
 30
0.0
 11
163.3191392029
 21
226.7890841688
 31
0.0
  0
LINE
  5
114
330
1F
100
AcDbEntity
  8
0
  6
Continuous
 62
     7
370
    25
100
AcDbLine
 10
161.3191391079
 20
210.7890852715
 30
0.0
 11
163.3191392029
 21
210.7890852715
 31
0.0
  0
LINE
  5
115
330
1F
100
AcDbEntity
  8
0
  6
Continuous
 62
     7
370
    25
100
AcDbLine
 10
163.3191392029
 20
226.7890841688
 30
0.0
 11
161.3191391079
 21
226.7890841688
 31
0.0
  0
LINE
  5
116
330
1F
100
AcDbEntity
  8
0
  6
Continuous
 62
     7
370
    25
100
AcDbLine
 10
112.7191397099
 20
211.189084592
 30
0.0
 11
113.819139704
 21
211.189084592
 31
0.0
  0
LINE
  5
117
330
1F
100
AcDbEntity
  8
0
  6
Continuous
 62
     7
370
    25
100
AcDbLine
 10
113.819139704
 20
226.3890848483
 30
0.0
 11
112.7191397099
 21
226.3890848483
 31
0.0
  0
LINE
  5
118
330
1F
100
AcDbEntity
  8
0
  6
Continuous
 62
     7
370
    25
100
AcDbLine
 10
161.3191391079
 20
218.7890828575
 30
0.0
 11
161.3191391079
 21
233.7890834536
 31
0.0
  0
LINE
  5
119
330
1F
100
AcDbEntity
  8
0
  6
Continuous
 62
     7
370
    25
100
AcDbLine
 10
161.3191391079
 20
203.7890859868
 30
0.0
 11
161.3191391079
 21
218.7890828575
 31
0.0
  0
LINE
  5
11A
330
1F
100
AcDbEntity
  8
0
  6
Continuous
 62
     7
370
    25
100
AcDbLine
 10
137.8191399126
 20
218.7890828575
 30
0.0
 11
137.8191399126
 21
233.7890834536
 31
0.0
  0
LINE
  5
11B
330
1F
100
AcDbEntity
  8
0
  6
Continuous
 62
     7
370
    25
100
AcDbLine
 10
137.8191399126
 20
203.7890859868
 30
0.0
 11
137.8191399126
 21
218.7890828575
 31
0.0
  0
LINE
  5
11C
330
1F
100
AcDbEntity
  8
0
  6
Continuous
 62
     7
370
    25
100
AcDbLine
 10
113.819139704
 20
218.7890828575
 30
0.0
 11
113.819139704
 21
226.7890841688
 31
0.0
  0
LINE
  5
11D
330
1F
100
AcDbEntity
  8
0
  6
Continuous
 62
     7
370
    25
100
AcDbLine
 10
113.819139704
 20
210.7890852715
 30
0.0
 11
113.819139704
 21
218.7890828575
 31
0.0
  0
LINE
  5
11E
330
1F
100
AcDbEntity
  8
0
  6
Continuous
 62
     7
370
    25
100
AcDbLine
 10
112.7191397099
 20
218.7890828575
 30
0.0
 11
112.7191397099
 21
226.7890841688
 31
0.0
  0
LINE
  5
11F
330
1F
100
AcDbEntity
  8
0
  6
Continuous
 62
     7
370
    25
100
AcDbLine
 10
112.7191397099
 20
210.7890852715
 30
0.0
 11
112.7191397099
 21
218.7890828575
 31
0.0
  0
LINE
  5
120
330
1F
100
AcDbEntity
  8
0
  6
Continuous
 62
     7
370
    25
100
AcDbLine
 10
111.8191393761
 20
218.7890828575
 30
0.0
 11
111.8191393761
 21
210.7890852715
 31
0.0
  0
LINE
  5
121
330
1F
100
AcDbEntity
  8
0
  6
Continuous
 62
     7
370
    25
100
AcDbLine
 10
111.8191393761
 20
226.7890841688
 30
0.0
 11
111.8191393761
 21
218.7890828575
 31
0.0
  0
LINE
  5
122
330
1F
100
AcDbEntity
  8
0
  6
Continuous
 62
     7
370
    25
100
AcDbLine
 10
111.6191397159
 20
218.7890828575
 30
0.0
 11
111.6191397159
 21
226.5890845086
 31
0.0
  0
LINE
  5
123
330
1F
100
AcDbEntity
  8
0
  6
Continuous
 62
     7
370
    25
100
AcDbLine
 10
111.6191397159
 20
210.9890849318
 30
0.0
 11
111.6191397159
 21
218.7890828575
 31
0.0
  0
LINE
  5
124
330
1F
100
AcDbEntity
  8
0
  6
Continuous
 62
     7
370
    25
100
AcDbLine
 10
163.3191392029
 20
218.7890828575
 30
0.0
 11
163.3191392029
 21
226.7890841688
 31
0.0
  0
LINE
  5
125
330
1F
100
AcDbEntity
  8
0
  6
Continuous
 62
     7
370
    25
100
AcDbLine
 10
163.3191392029
 20
210.7890852715
 30
0.0
 11
163.3191392029
 21
218.7890828575
 31
0.0
  0
LINE
  5
126
330
1F
100
AcDbEntity
  8
0
  6
Continuous
 62
     7
370
    25
100
AcDbLine
 10
164.319139134
 20
218.7890828575
 30
0.0
 11
164.319139134
 21
211.7890835728
 31
0.0
  0
LINE
  5
127
330
1F
100
AcDbEntity
  8
0
  6
Continuous
 62
     7
370
    25
100
AcDbLine
 10
164.319139134
 20
225.7890858675
 30
0.0
 11
164.319139134
 21
218.7890828575
 31
0.0
  0
DIMENSION
  5
128
330
1F
100
AcDbEntity
  8
0
  6
Continuous
 62
     7
370
    18
100
AcDbDimension
  2
_D
 10
111.6191391079
 20
245.2260017671
 30
0.0
 11
125.4090520703
 21
245.2260017671
 31
0.0
 70
   160
  1
<>
 71
     2
 42
-1.0
  3
SLDDIMSTYLE0
100
AcDbAlignedDimension
 13
137.8191391079
 23
233.789084393
 33
0.0
 14
111.6191391079
 24
226.589084393
 34
0.0
100
AcDbRotatedDimension
  0
DIMENSION
  5
133
330
1F
100
AcDbEntity
  8
0
  6
Continuous
 62
     7
370
    18
100
AcDbDimension
  2
_D_1
 10
101.6191391079
 20
210.7890843931
 30
0.0
 11
101.6191391079
 21
245.2260017671
 31
0.0
 70
   160
  1
%%c<>g6
 71
     2
 42
-1.0
  3
SLDDIMSTYLE1
100
AcDbAlignedDimension
 13
113.8191391079
 23
226.789084393
 33
0.0
 14
113.8191391079
 24
210.7890843931
 34
0.0
 50
90.0
100
AcDbRotatedDimension
  0
DIMENSION
  5
145
330
1F
100
AcDbEntity
  8
0
  6
Continuous
 62
     7
370
    18
100
AcDbDimension
  2
_D_2
 10
194.6176045568
 20
210.7890843932
 30
0.0
 11
194.6176045568
 21
243.789084393
 31
0.0
 70
   160
  1
%%c<>
 71
     2
 42
-1.0
  3
SLDDIMSTYLE2
100
AcDbAlignedDimension
 13
163.3191391079
 23
226.789084393
 33
0.0
 14
163.3191391079
 24
210.7890843932
 34
0.0
 50
90.0
100
AcDbRotatedDimension
  0
DIMENSION
  5
152
330
1F
100
AcDbEntity
  8
0
  6
Continuous
 62
     7
370
    18
100
AcDbDimension
  2
_D_3
 10
161.3191391079
 20
249.789084393
 30
0.0
 11
178.3285009979
 21
249.789084393
 31
0.0
 70
   160
  1
<>
 71
     2
 42
-1.0
  3
SLDDIMSTYLE0
100
AcDbAlignedDimension
 13
164.3191391079
 23
226.789084393
 33
0.0
 14
161.3191391079
 24
233.789084393
 34
0.0
100
AcDbRotatedDimension
  0
DIMENSION
  5
15E
330
1F
100
AcDbEntity
  8
0
  6
Continuous
 62
     7
370
    18
100
AcDbDimension
  2
_D_4
 10
111.6191391079
 20
187.7890843932
 30
0.0
 11
138.4339639217
 21
187.7890843932
 31
0.0
 70
   160
  1
<>
 71
     2
 42
-1.0
  3
SLDDIMSTYLE2
100
AcDbAlignedDimension
 13
164.3191391079
 23
210.7890843932
 33
0.0
 14
111.6191391079
 24
210.9890843931
 34
0.0
100
AcDbRotatedDimension
  0
LINE
  5
168
330
1F
100
AcDbEntity
  8
0
  6
PHANTOM
 62
     7
370
    35
100
AcDbLine
 10
217.012129311
 20
218.7890843931
 30
0.0
 11
84.6368169752
 21
218.7890843931
 31
0.0
  0
LINE
  5
169
330
1F
100
AcDbEntity
  8
0
  6
Continuous
 62
     7
370
    35
100
AcDbLine
 10
215.012129311
 20
231.4890843931
 30
0.0
 11
215.012129311
 21
218.7890843931
 31
0.0
  0
SOLID
  5
16A
330
1F
100
AcDbEntity
  8
0
  6
Continuous
 62
     7
370
    35
100
AcDbTrace
 10
215.012129311
 20
218.7890843931
 30
0.0
 11
216.028129311
 21
225.1390843931
 31
0.0
 12
213.996129311
 22
225.1390843931
 32
0.0
 13
213.996129311
 23
225.1390843931
 33
0.0
  0
LINE
  5
16B
330
1F
100
AcDbEntity
  8
0
  6
Continuous
 62
     7
370
    35
100
AcDbLine
 10
86.6368169752
 20
231.4890843931
 30
0.0
 11
86.6368169752
 21
218.7890843931
 31
0.0
  0
SOLID
  5
16C
330
1F
100
AcDbEntity
  8
0
  6
Continuous
 62
     7
370
    35
100
AcDbTrace
 10
86.6368169752
 20
218.7890843931
 30
0.0
 11
87.6528169752
 21
225.1390843931
 31
0.0
 12
85.6208169752
 22
225.1390843931
 32
0.0
 13
85.6208169752
 23
225.1390843931
 33
0.0
  0
MTEXT
  5
16D
330
1F
100
AcDbEntity
  8
0
  6
Continuous
 62
     7
100
AcDbMText
 10
216.3918909696
 20
231.4890843931
 30
0.0
 40
3.5
 41
0.0
 71
     1
 72
     1
  1
A
  7
SLDTEXTSTYLE0
 73
     1
 44
1.0
  0
MTEXT
  5
16E
330
1F
100
AcDbEntity
  8
0
  6
Continuous
 62
     7
100
AcDbMText
 10
81.8076511701
 20
231.4890843931
 30
0.0
 40
3.5
 41
0.0
 71
     1
 72
     1
  1
A
  7
SLDTEXTSTYLE0
 73
     1
 44
1.0
  0
CIRCLE
  5
16F
330
1F
100
AcDbEntity
  8
0
  6
Continuous
 62
     7
370
    25
100
AcDbCircle
 10
286.7564565646
 20
218.7890843931
 30
0.0
 40
7.799999999911677
  0
CIRCLE
  5
170
330
1F
100
AcDbEntity
  8
0
  6
Continuous
 62
     7
370
    25
100
AcDbCircle
 10
286.7564565646
 20
218.7890843931
 30
0.0
 40
7.999999999911608
  0
CIRCLE
  5
171
330
1F
100
AcDbEntity
  8
0
  6
Continuous
 62
     7
370
    25
100
AcDbCircle
 10
286.7564565646
 20
218.7890843931
 30
0.0
 40
14.99999999991064
  0
DIMENSION
  5
172
330
1F
100
AcDbEntity
  8
0
  6
Continuous
 62
     7
370
    18
100
AcDbDimension
  2
_D_5
 10
273.0045922775
 20
212.7985728435
 30
0.0
 11
361.4452824608
 21
251.3246259335
 31
0.0
 70
   163
  1
<>
 71
     1
 42
-1.0
  3
SLDDIMSTYLE3
100
AcDbDiametricDimension
 15
300.5083208517
 25
224.7795959427
 35
0.0
 40
0.0
  0
INSERT
  5
18A
330
1F
100
AcDbEntity
  8
0
  6
Continuous
 62
     7
370
     0
100
AcDbBlockReference
  2
SW_CENTERMARKSYMBOL_0
 10
286.7564565646
 20
218.7890843931
 30
0.0
  0
LINE
  5
18B
330
1F
100
AcDbEntity
  8
0
  6
Continuous
 62
     7
370
    25
100
AcDbLine
 10
341.7098228799
 20
152.4886747353
 30
0.0
 11
325.092814091
 21
142.8958797498
 31
0.0
  0
LINE
  5
18C
330
1F
100
AcDbEntity
  8
0
  6
Continuous
 62
     7
370
    25
100
AcDbLine
 10
340.0915946313
 20
116.9144131241
 30
0.0
 11
356.7086034202
 21
126.5072081096
 31
0.0
  0
LINE
  5
18D
330
1F
100
AcDbEntity
  8
0
  6
Continuous
 62
     7
370
    25
100
AcDbLine
 10
356.2802806392
 20
137.0487158299
 30
0.0
 11
356.2802817917
 21
137.8651232201
 31
0.0
  0
LINE
  5
18E
330
1F
100
AcDbEntity
  8
0
  6
Continuous
 62
     7
370
    25
100
AcDbLine
 10
351.3313382534
 20
146.4378756536
 30
0.0
 11
350.6243474248
 21
146.8461441408
 31
0.0
  0
LINE
  5
18F
330
1F
100
AcDbEntity
  8
0
  6
Continuous
 62
     7
370
    25
100
AcDbLine
 10
353.2088898047
 20
132.5695499675
 30
0.0
 11
354.6231034343
 21
133.3859581181
 31
0.0
  0
LINE
  5
190
330
1F
100
AcDbEntity
  8
0
  6
Continuous
 62
     7
370
    25
100
AcDbLine
 10
346.6237527591
 20
147.2427395073
 30
0.0
 11
345.2095391295
 21
146.4263313567
 31
0.0
  0
LINE
  5
191
330
1F
100
AcDbEntity
  8
0
  6
Continuous
 62
     7
370
    25
100
AcDbLine
 10
322.2477253266
 20
133.170758401
 30
0.0
 11
311.6219674446
 21
127.0366389442
 31
0.0
  0
LINE
  5
192
330
1F
100
AcDbEntity
  8
0
  6
Continuous
 62
     7
370
    25
100
AcDbLine
 10
319.6213181198
 20
113.179857555
 30
0.0
 11
330.2470760017
 21
119.3139770119
 31
0.0
  0
LINE
  5
193
330
1F
100
AcDbEntity
  8
0
  6
Continuous
 62
     7
370
    25
100
AcDbLine
 10
310.8441499896
 20
126.5876144851
 30
0.0
 11
310.2077536505
 21
126.2202306985
 31
0.0
  0
LINE
  5
194
330
1F
100
AcDbEntity
  8
0
  6
Continuous
 62
     7
370
    25
100
AcDbLine
 10
318.2071043256
 20
112.3634493094
 30
0.0
 11
318.8435006647
 21
112.730833096
 31
0.0
  0
LINE
  5
195
330
1F
100
AcDbEntity
  8
0
  6
Continuous
 62
     7
370
    25
100
AcDbLine
 10
308.5505764455
 20
122.5574699449
 30
0.0
 11
308.5505738113
 21
122.3941901206
 31
0.0
  0
LINE
  5
196
330
1F
100
AcDbEntity
  8
0
  6
Continuous
 62
     7
370
    25
100
AcDbLine
 10
314.0651122515
 20
112.8416982023
 30
0.0
 11
314.2065096599
 21
112.7600446759
 31
0.0
  0
LWPOLYLINE
  5
197
330
1F
100
AcDbEntity
  8
0
  6
Continuous
 62
     7
370
    25
100
AcDbPolyline
 90
      114
 70
   128
 43
0.0
 10
338.6026096937
 20
145.6210017438
 10
338.6190048178
 20
146.2922243322
 10
338.668132238
 20
146.9424460069
 10
338.7498391722
 20
147.5696591316
 10
338.8638780076
 20
148.1719199398
 10
339.0098904959
 20
148.7473728686
 10
339.1874288269
 20
149.2942353508
 10
339.3959450916
 20
149.8108160655
 10
339.6347912821
 20
150.2955240637
 10
339.9032350969
 20
150.74685356
 10
340.2004441359
 20
151.1634143503
 10
340.5254964367
 20
151.5439166028
 10
340.8773910116
 20
151.887186069
 10
341.255037311
 20
152.1921671241
 10
341.6572657598
 20
152.457904517
 10
342.0828435626
 20
152.6835829156
 10
342.5304430938
 20
152.8685086534
 10
342.9986893124
 20
153.0121066913
 10
343.4861334205
 20
153.1139297412
 10
343.9912633999
 20
153.1736704342
 10
344.5125250856
 20
153.1911369879
 10
345.0483037264
 20
153.166282102
 10
345.5969424243
 20
153.0991801464
 10
346.1567447688
 20
152.9900317241
 10
346.7259853731
 20
152.8391819235
 10
347.3028993381
 20
152.6470959821
 10
347.8857059593
 20
152.4143699358
 10
348.472603459
 20
152.1417154088
 10
349.0617768885
 20
151.8299854702
 10
349.651408665
 20
151.4801320489
 10
350.2396706689
 20
151.0932409144
 10
350.8247505858
 20
150.6705164699
 10
351.4048361011
 20
150.2132482904
 10
351.9781333396
 20
149.7228673987
 10
352.5428721337
 20
149.2008823872
 10
353.0973086575
 20
148.6489022315
 10
353.6397254269
 20
148.068642375
 10
354.1684497389
 20
147.4618836647
 10
354.6818431348
 20
146.8305149366
 10
355.1783224736
 20
146.1764782645
 10
355.6563520294
 20
145.5017978565
 10
356.1144540284
 20
144.8085618051
 10
356.5512112828
 20
144.0989083988
 10
356.9652750935
 20
143.3750398116
 10
357.3553652498
 20
142.639179517
 10
357.7202752984
 20
141.893617916
 10
358.058877811
 20
141.1406484588
 10
358.3701296531
 20
140.3825950222
 10
358.6530614471
 20
139.6218149501
 10
358.9068065486
 20
138.8606488661
 10
359.1305747041
 20
138.1014541309
 10
359.323678393
 20
137.3465744267
 10
359.485517023
 20
136.5983427972
 10
359.6155927342
 20
135.8590786075
 10
359.7135024975
 20
135.1310586458
 10
359.7789460165
 20
134.4165368958
 10
359.8117178254
 20
133.7177186808
 10
359.8117178254
 20
133.0367697895
 10
359.7789460165
 20
132.3757921414
 10
359.7135024975
 20
131.7368298702
 10
359.6155927342
 20
131.1218541149
 10
359.485517023
 20
130.5327691029
 10
359.323678393
 20
129.97139542
 10
359.1305747041
 20
129.4394684894
 10
358.9068065486
 20
128.9386309672
 10
358.6530614471
 20
128.4704327413
 10
358.3701296531
 20
128.0363157235
 10
358.058877811
 20
127.6376320982
 10
357.7202752984
 20
127.2756017387
 10
357.3553652498
 20
126.95135327
 10
356.9652750935
 20
126.665884525
 10
356.5512112828
 20
126.4200807959
 10
356.1144540284
 20
126.2146996237
 10
355.6563520294
 20
126.050376882
 10
355.1783224736
 20
125.9276176512
 10
354.6818431348
 20
125.8468038222
 10
354.1684497389
 20
125.808186492
 10
353.6397254269
 20
125.8118798785
 10
353.0973086575
 20
125.8578780518
 10
352.5428721337
 20
125.9460397227
 10
351.9781333396
 20
126.076085202
 10
351.4048361011
 20
126.2476192126
 10
350.8247505858
 20
126.4601095967
 10
350.2396706689
 20
126.7128979617
 10
349.651408665
 20
127.0052027217
 10
349.0617768885
 20
127.3361267007
 10
348.472603459
 20
127.7046358407
 10
347.8857059593
 20
128.1096017852
 10
347.3028993381
 20
128.5497668989
 10
346.7259853731
 20
129.0237716434
 10
346.1567447688
 20
129.5301530549
 10
345.5969424243
 20
130.0673447457
 10
345.0483037264
 20
130.6336845056
 10
344.5125250856
 20
131.2274234293
 10
343.9912633999
 20
131.8467259148
 10
343.4861334205
 20
132.4896772681
 10
342.9986893124
 20
133.1542913059
 10
342.5304430938
 20
133.8385149202
 10
342.0828435626
 20
134.5402280766
 10
341.6572657598
 20
135.2572681475
 10
341.255037311
 20
135.9874147058
 10
340.8773910116
 20
136.7284108135
 10
340.5254964367
 20
137.4779691079
 10
340.2004441359
 20
138.2337718003
 10
339.9032350969
 20
138.9934828428
 10
339.6347912821
 20
139.7547509706
 10
339.3959450916
 20
140.5152249105
 10
339.1874288269
 20
141.2725533799
 10
339.0098904959
 20
142.0243972559
 10
338.8638780076
 20
142.7684326153
 10
338.7498391722
 20
143.5023598602
 10
338.668132238
 20
144.2239098031
 10
338.6190048178
 20
144.9308527899
 10
338.6026096937
 20
145.6210017438
  0
LWPOLYLINE
  5
198
330
1F
100
AcDbEntity
  8
0
  6
Continuous
 62
     7
370
    25
100
AcDbPolyline
 90
       16
 70
   128
 43
0.0
 10
321.9856009048
 20
136.0282067584
 10
322.0019960289
 20
136.6994293468
 10
322.0511234491
 20
137.3496510215
 10
322.1328303833
 20
137.9768641462
 10
322.2468692187
 20
138.5791249544
 10
322.392881707
 20
139.1545778831
 10
322.570420038
 20
139.7014403653
 10
322.7789363027
 20
140.2180210801
 10
323.0177824932
 20
140.7027290782
 10
323.286226308
 20
141.1540585746
 10
323.583435347
 20
141.5706193648
 10
323.9084876478
 20
141.9511216174
 10
324.2603822227
 20
142.2943910836
 10
324.6380285221
 20
142.5993721387
 10
325.0402569709
 20
142.8651095315
 10
325.092814091
 20
142.8958797498
  0
LWPOLYLINE
  5
199
330
1F
100
AcDbEntity
  8
0
  6
Continuous
 62
     7
370
    25
100
AcDbPolyline
 90
       44
 70
   128
 43
0.0
 10
340.0915946313
 20
116.9144131241
 10
339.9342024939
 20
116.8272858104
 10
339.4974452395
 20
116.6219046382
 10
339.0393432405
 20
116.4575818966
 10
338.5613136847
 20
116.3348226657
 10
338.0648343459
 20
116.2540088368
 10
337.55144095
 20
116.2153915066
 10
337.022716638
 20
116.2190848931
 10
336.4802998686
 20
116.2650830663
 10
335.9258633448
 20
116.3532447372
 10
335.3611245507
 20
116.4832902165
 10
334.7878273122
 20
116.6548242272
 10
334.2077417969
 20
116.8673146112
 10
333.62266188
 20
117.1201029762
 10
333.0343998761
 20
117.4124077363
 10
332.4447680996
 20
117.7433317153
 10
331.8555946701
 20
118.1118408552
 10
331.2686971704
 20
118.5168067997
 10
330.6858905492
 20
118.9569719135
 10
330.1089765842
 20
119.4309766579
 10
329.5397359799
 20
119.9373580695
 10
328.9799336354
 20
120.4745497602
 10
328.4312949375
 20
121.0408895202
 10
327.8955162967
 20
121.6346284439
 10
327.374254611
 20
122.2539309294
 10
326.8691246316
 20
122.8968822826
 10
326.3816805235
 20
123.5614963204
 10
325.9134343049
 20
124.2457199348
 10
325.4658347737
 20
124.9474330911
 10
325.0402569709
 20
125.664473162
 10
324.6380285221
 20
126.3946197204
 10
324.2603822227
 20
127.1356158281
 10
323.9084876478
 20
127.8851741224
 10
323.583435347
 20
128.6409768149
 10
323.286226308
 20
129.4006878574
 10
323.0177824932
 20
130.1619559851
 10
322.7789363027
 20
130.922429925
 10
322.570420038
 20
131.6797583945
 10
322.392881707
 20
132.4316022705
 10
322.2468692187
 20
133.1756376298
 10
322.1328303833
 20
133.9095648748
 10
322.0511234491
 20
134.6311148177
 10
322.0019960289
 20
135.3380578045
 10
321.9856009048
 20
136.0282067584
  0
ARC
  5
19A
330
1F
100
AcDbEntity
  8
0
  6
Continuous
 62
     7
370
    25
100
AcDbCircle
 10
347.4424267308
 20
143.2098185839
 30
0.0
 40
3.915576771912641
100
AcDbArc
 50
124.7681942987
 51
186.54406804
  0
LWPOLYLINE
  5
19B
330
1F
100
AcDbEntity
  8
0
  6
Continuous
 62
     7
370
    25
100
AcDbPolyline
 90
       32
 70
   128
 43
0.0
 10
353.2088898047
 20
132.5695499675
 10
352.9728648189
 20
132.4485031933
 10
352.6385428456
 20
132.3231186408
 10
352.2840957522
 20
132.239840551
 10
351.9116045392
 20
132.1991558156
 10
351.5232555745
 20
132.2013019041
 10
351.121327422
 20
132.2462683839
 10
350.708175037
 20
132.3337908347
 10
350.2862297656
 20
132.463353891
 10
349.857962467
 20
132.6342003635
 10
349.425886147
 20
132.8453266769
 10
348.9925401531
 20
133.0954919943
 10
348.5604664672
 20
133.3832288606
 10
348.1321991686
 20
133.7068492861
 10
347.7102512631
 20
134.0644553911
 10
347.2971015122
 20
134.4539470098
 10
346.8951733598
 20
134.8730368972
 10
346.5068217609
 20
135.3192705
 10
346.1343305479
 20
135.7900244356
 10
345.7798860887
 20
136.282536908
 10
345.4455641154
 20
136.7939213946
 10
345.1333270907
 20
137.3211712094
 10
344.8450110368
 20
137.8611975245
 10
344.5823070958
 20
138.4108278473
 10
344.3467536278
 20
138.9668379595
 10
344.1397362105
 20
139.5259640845
 10
343.9624665657
 20
140.0849272198
 10
343.815990462
 20
140.6404437849
 10
343.7011613732
 20
141.1892590787
 10
343.6186536489
 20
141.7281488019
 10
343.5689572462
 20
142.2539464328
 10
343.5523619246
 20
142.7635706031
  0
LWPOLYLINE
  5
19C
330
1F
100
AcDbEntity
  8
0
  6
Continuous
 62
     7
370
    25
100
AcDbPolyline
 90
       22
 70
   128
 43
0.0
 10
344.9665755541
 20
143.5799787537
 10
344.9831708757
 20
144.0704454153
 10
345.0328672785
 20
144.5388648009
 10
345.1153750028
 20
144.9824931333
 10
345.2302040916
 20
145.3987265413
 10
345.3766801952
 20
145.785125397
 10
345.55394984
 20
146.1394203988
 10
345.7609672574
 20
146.4595293013
 10
345.9965207254
 20
146.7435751683
 10
346.2592246663
 20
146.989893977
 10
346.5475407203
 20
147.19703462
 10
346.8597777449
 20
147.3637862815
 10
347.1940997182
 20
147.489170834
 10
347.5485441775
 20
147.5724504444
 10
347.9210353904
 20
147.6131351798
 10
348.3093869893
 20
147.6109875706
 10
348.7113151418
 20
147.5660210909
 10
349.1244648927
 20
147.4785001608
 10
349.5464127982
 20
147.3489355838
 10
349.9746800968
 20
147.1780891113
 10
350.4067537827
 20
146.9669643185
 10
350.6243474248
 20
146.8461441408
  0
LWPOLYLINE
  5
19D
330
1F
100
AcDbEntity
  8
0
  6
Continuous
 62
     7
370
    25
100
AcDbPolyline
 90
       43
 70
   128
 43
0.0
 10
356.2802806392
 20
137.0487158299
 10
356.2636826834
 20
136.5582537308
 10
356.2139862807
 20
136.0898343451
 10
356.1314811905
 20
135.6462044921
 10
356.0166521018
 20
135.2299680422
 10
355.870173364
 20
134.8435707072
 10
355.6929063533
 20
134.4892772266
 10
355.4858889359
 20
134.1691683241
 10
355.250335468
 20
133.8851224571
 10
354.9876288929
 20
133.638805169
 10
354.6993128389
 20
133.4316614842
 10
354.3870784484
 20
133.2649113439
 10
354.0527564751
 20
133.1395267914
 10
353.6983093817
 20
133.0562487016
 10
353.3258181687
 20
133.0155639662
 10
352.937469204
 20
133.0177100547
 10
352.5355410516
 20
133.0626765345
 10
352.1223886665
 20
133.1501989853
 10
351.7004433952
 20
133.2797620416
 10
351.2721760966
 20
133.4506085141
 10
350.8400997765
 20
133.6617348275
 10
350.4067537827
 20
133.9119001449
 10
349.9746800968
 20
134.1996370112
 10
349.5464127982
 20
134.5232574367
 10
349.1244648927
 20
134.8808635417
 10
348.7113151418
 20
135.2703551604
 10
348.3093869893
 20
135.6894450478
 10
347.9210353904
 20
136.1356786506
 10
347.5485441775
 20
136.6064325862
 10
347.1940997182
 20
137.0989450586
 10
346.8597777449
 20
137.6103295452
 10
346.5475407203
 20
138.13757936
 10
346.2592246663
 20
138.6776056751
 10
345.9965207254
 20
139.2272359979
 10
345.7609672574
 20
139.7832461101
 10
345.55394984
 20
140.3423722351
 10
345.3766801952
 20
140.9013353704
 10
345.2302040916
 20
141.4568519355
 10
345.1153750028
 20
142.0056672293
 10
345.0328672785
 20
142.5445569525
 10
344.9831708757
 20
143.0703545834
 10
344.9665755541
 20
143.5799787537
 10
344.9665755541
 20
143.5799787537
  0
LWPOLYLINE
  5
19E
330
1F
100
AcDbEntity
  8
0
  6
Continuous
 62
     7
370
    25
100
AcDbPolyline
 90
       78
 70
   128
 43
0.0
 10
346.3807878666
 20
143.579979419
 10
346.3972567476
 20
143.1045851925
 10
346.4465580237
 20
142.6133338327
 10
346.5283597883
 20
142.1095013826
 10
346.6421194008
 20
141.5964399118
 10
346.7870782179
 20
141.0775623064
 10
346.9622747646
 20
140.5563224987
 10
347.1665421001
 20
140.0361865691
 10
347.3985183543
 20
139.5206205796
 10
347.6566625331
 20
139.0130540733
 10
347.9392571523
 20
138.5168603024
 10
348.2444161406
 20
138.0353486244
 10
348.5701164492
 20
137.5717188774
 10
348.9141848812
 20
137.1290568159
 10
349.2743349701
 20
136.7103097794
 10
349.6481669797
 20
136.3182653998
 10
350.03319688
 20
135.955525748
 10
350.4268589818
 20
135.6245149388
 10
350.8265375463
 20
135.3274274229
 10
351.2295667852
 20
135.0662431954
 10
351.6332703736
 20
134.8427019443
 10
352.0349561817
 20
134.6582908824
 10
352.4319557871
 20
134.5142371464
 10
352.8216271092
 20
134.4114971508
 10
353.2013728484
 20
134.3507581102
 10
353.5686720965
 20
134.3324167497
 10
353.9210724336
 20
134.3566082016
 10
354.2562373439
 20
134.4231573403
 10
354.5719304101
 20
134.5316335338
 10
354.8660521924
 20
134.6813050199
 10
355.1366454966
 20
134.8711814922
 10
355.3819111789
 20
135.0999988927
 10
355.600213415
 20
135.3662315791
 10
355.7901034068
 20
135.6681120999
 10
355.9503141147
 20
136.0036281513
 10
356.0797813308
 20
136.3705469144
 10
356.1776436788
 20
136.7664302644
 10
356.2432505169
 20
137.1886362922
 10
356.2761619372
 20
137.634364932
 10
356.2761619372
 20
138.1006412328
 10
356.2432505169
 20
138.5843685897
 10
356.1776436788
 20
139.0823226604
 10
356.0797813308
 20
139.5911924305
 10
355.9503141147
 20
140.1075939015
 10
355.7901034068
 20
140.6280852989
 10
355.600213415
 20
141.1492050956
 10
355.3819111789
 20
141.6674872207
 10
355.1366454966
 20
142.1794793085
 10
354.8660521924
 20
142.6817792016
 10
354.5719304101
 20
143.1710364693
 10
354.2562373439
 20
143.6440010769
 10
353.9210724336
 20
144.0975264258
 10
353.5686720965
 20
144.5285876046
 10
353.2013728484
 20
144.9343239711
 10
352.8216271092
 20
145.3120300285
 10
352.4319557871
 20
145.6591949648
 10
352.0349561817
 20
145.9735072166
 10
351.6332703736
 20
146.2528727169
 10
351.2295667852
 20
146.4954377077
 10
350.8265375463
 20
146.6995811346
 10
350.4268589818
 20
146.8639526668
 10
350.03319688
 20
146.9874544458
 10
349.6481669797
 20
147.0692608546
 10
349.2743349701
 20
147.108833726
 10
348.9141848812
 20
147.1059040893
 10
348.5701164492
 20
147.0604980254
 10
348.2444161406
 20
146.9729108085
 10
347.9392571523
 20
146.8437312407
 10
347.6566625331
 20
146.6738142722
 10
347.3985183543
 20
146.4642946907
 10
347.1665421001
 20
146.2165627833
 10
346.9622747646
 20
145.9322688992
 10
346.7870782179
 20
145.6133067187
 10
346.6421194008
 20
145.2617950011
 10
346.5283597883
 20
144.880077583
 10
346.4465580237
 20
144.47069144
 10
346.3972567476
 20
144.036362122
 10
346.3807878666
 20
143.579979419
  0
ARC
  5
19F
330
1F
100
AcDbEntity
  8
0
  6
Continuous
 62
     7
370
    25
100
AcDbCircle
 10
313.8548550459
 20
123.8201261715
 30
0.0
 40
3.915576771913083
100
AcDbArc
 50
124.7681942987
 51
186.54406804
  0
LWPOLYLINE
  5
1A0
330
1F
100
AcDbEntity
  8
0
  6
Continuous
 62
     7
370
    25
100
AcDbPolyline
 90
       32
 70
   128
 43
0.0
 10
319.6213181198
 20
113.179857555
 10
319.385293134
 20
113.0588107808
 10
319.0509711607
 20
112.9334262283
 10
318.6965240673
 20
112.8501481386
 10
318.3240328543
 20
112.8094634032
 10
317.9356838896
 20
112.8116094917
 10
317.5337557371
 20
112.8565759714
 10
317.1206033521
 20
112.9440984222
 10
316.6986580807
 20
113.0736614785
 10
316.2703907821
 20
113.244507951
 10
315.8383144621
 20
113.4556342645
 10
315.4049684682
 20
113.7057995818
 10
314.9728947824
 20
113.9935364481
 10
314.5446274837
 20
114.3171568736
 10
314.1226795782
 20
114.6747629786
 10
313.7095298273
 20
115.0642545973
 10
313.3076016749
 20
115.4833444847
 10
312.919250076
 20
115.9295780876
 10
312.546758863
 20
116.4003320232
 10
312.1923144038
 20
116.8928444955
 10
311.8579924305
 20
117.4042289821
 10
311.5457554058
 20
117.931478797
 10
311.2574393519
 20
118.471505112
 10
310.9947354109
 20
119.0211354348
 10
310.759181943
 20
119.5771455471
 10
310.5521645256
 20
120.136271672
 10
310.3748948808
 20
120.6952348073
 10
310.2284187771
 20
121.2507513725
 10
310.1135896884
 20
121.7995666663
 10
310.031081964
 20
122.3384563894
 10
309.9813855613
 20
122.8642540203
 10
309.9647902397
 20
123.3738781906
  0
ARC
  5
1A1
330
1F
100
AcDbEntity
  8
0
  6
Continuous
 62
     7
370
    25
100
AcDbCircle
 10
313.760083957
 20
123.0225211397
 30
0.0
 40
4.298197509728575
100
AcDbArc
 50
139.7408448941
 51
183.4806362779
  0
LWPOLYLINE
  5
1A2
330
1F
100
AcDbEntity
  8
0
  6
Continuous
 62
     7
370
    25
100
AcDbPolyline
 90
       29
 70
   128
 43
0.0
 10
317.9795245146
 20
112.8092546107
 10
317.651737937
 20
112.7470119052
 10
317.2835746785
 20
112.7214592665
 10
316.9003702635
 20
112.7386766914
 10
316.5044849155
 20
112.79856402
 10
316.0983631516
 20
112.9007473342
 10
315.6845048068
 20
113.0446017679
 10
315.2654650338
 20
113.2292362985
 10
314.8438253271
 20
113.4535135156
 10
314.4221856205
 20
113.7160511417
 10
314.0031432133
 20
114.0152311554
 10
313.5892875027
 20
114.349205875
 10
313.1831631047
 20
114.7159222893
 10
312.7872803908
 20
115.1131129336
 10
312.4040759757
 20
115.5383339088
 10
312.0359127173
 20
115.9889587978
 10
311.6850612769
 20
116.462213645
 10
311.3536843146
 20
116.9551799967
 10
311.0438259527
 20
117.4648161933
 10
310.7573933361
 20
117.9879832228
 10
310.4961592665
 20
118.5214523262
 10
310.2617279583
 20
119.0619369333
 10
310.0555455754
 20
119.6061048315
 10
309.8788844257
 20
120.150599457
 10
309.7328350589
 20
120.6920657498
 10
309.6182983639
 20
121.2271607995
 10
309.535975032
 20
121.7525933886
 10
309.4863787281
 20
122.2651163887
 10
309.4698150166
 20
122.7615723865
  0
ARC
  5
1A3
330
1F
100
AcDbEntity
  8
0
  6
Continuous
 62
     7
370
    25
100
AcDbCircle
 10
312.923167348
 20
123.4035789618
 30
0.0
 40
3.766739659442189
100
AcDbArc
 50
116.3378174925
 51
187.3016244649
  0
LWPOLYLINE
  5
1A4
330
1F
100
AcDbEntity
  8
0
  6
Continuous
 62
     7
370
    25
100
AcDbPolyline
 90
       34
 70
   128
 43
0.0
 10
319.2134630668
 20
112.9881643462
 10
319.2080261233
 20
112.9836801469
 10
318.9197100694
 20
112.7765364621
 10
318.6074756789
 20
112.6097863217
 10
318.2731537056
 20
112.4844017692
 10
317.9187066122
 20
112.4011236795
 10
317.5462153992
 20
112.3604389441
 10
317.1578664345
 20
112.3625850326
 10
316.755938282
 20
112.4075515123
 10
316.342785897
 20
112.4950739632
 10
315.9208406256
 20
112.6246370194
 10
315.492573327
 20
112.7954834919
 10
315.060497007
 20
113.0066098054
 10
314.6271510131
 20
113.2567751227
 10
314.1950773273
 20
113.544511989
 10
313.7668100287
 20
113.8681324145
 10
313.3448621231
 20
114.2257385196
 10
312.9317123723
 20
114.6152301383
 10
312.5297842198
 20
115.0343200257
 10
312.1414326209
 20
115.4805536285
 10
311.7689414079
 20
115.9513075641
 10
311.4144969487
 20
116.4438200364
 10
311.0801749754
 20
116.955204523
 10
310.7679379507
 20
117.4824543379
 10
310.4796218968
 20
118.022480653
 10
310.2169179558
 20
118.5721109758
 10
309.9813644879
 20
119.128121088
 10
309.7743470705
 20
119.6872472129
 10
309.5970774257
 20
120.2462103483
 10
309.450601322
 20
120.8017269134
 10
309.3357722333
 20
121.3505422072
 10
309.253264509
 20
121.8894319303
 10
309.2035681062
 20
122.4152295612
 10
309.1869727846
 20
122.9248537315
  0
LWPOLYLINE
  5
1A5
330
1F
100
AcDbEntity
  8
0
  6
Continuous
 62
     7
370
    25
100
AcDbPolyline
 90
       32
 70
   128
 43
0.0
 10
308.5505764455
 20
122.5574699449
 10
308.5671717671
 20
122.0478457747
 10
308.6168681699
 20
121.5220481437
 10
308.6993758942
 20
120.9831584206
 10
308.8142049829
 20
120.4343431268
 10
308.9606810866
 20
119.8788265617
 10
309.1379507314
 20
119.3198634263
 10
309.3449681488
 20
118.7607373014
 10
309.5805216167
 20
118.2047271892
 10
309.8432255577
 20
117.6550968664
 10
310.1315416116
 20
117.1150705513
 10
310.4437786363
 20
116.5878207365
 10
310.7781006096
 20
116.0764362498
 10
311.1325450688
 20
115.5839237775
 10
311.5050362818
 20
115.1131698419
 10
311.8933878807
 20
114.6669362391
 10
312.2953160332
 20
114.2478463517
 10
312.7084657841
 20
113.858354733
 10
313.1304136896
 20
113.5007486279
 10
313.5586809882
 20
113.1771282025
 10
313.990754674
 20
112.8893913362
 10
314.4241006679
 20
112.6392260188
 10
314.8561769879
 20
112.4280997053
 10
315.2844442865
 20
112.2572532328
 10
315.7063895579
 20
112.1276901766
 10
316.1195419429
 20
112.0401677257
 10
316.5214700954
 20
111.995201246
 10
316.9098190601
 20
111.9930551575
 10
317.2823102731
 20
112.0337398929
 10
317.6367573665
 20
112.1170179826
 10
317.9710793398
 20
112.2424025352
 10
318.2071043256
 20
112.3634493094
  0
ARC
  5
1A6
330
1F
100
AcDbEntity
  8
0
  6
Continuous
 62
     7
370
    25
100
AcDbCircle
 10
312.5833822353
 20
122.9391362837
 30
0.0
 40
4.05082605551114
100
AcDbArc
 50
125.9058700104
 51
185.4063923283
  0
ARC
  5
1A7
330
1F
100
AcDbEntity
  8
0
  6
Continuous
 62
     7
370
    25
100
AcDbCircle
 10
320.4893065624
 20
122.9182923859
 30
0.0
 40
11.95023108087806
100
AcDbArc
 50
182.5136319491
 51
237.481011636
  0
LINE
  5
1A8
330
1F
100
AcDbEntity
  8
0
  6
Continuous
 62
     7
370
    25
100
AcDbLine
 10
111.8191393761
 20
116.1493309642
 30
0.0
 11
111.6191397159
 21
115.949331304
 31
0.0
  0
LINE
  5
1A9
330
1F
100
AcDbEntity
  8
0
  6
Continuous
 62
     7
370
    25
100
AcDbLine
 10
111.8191393761
 20
116.1493309642
 30
0.0
 11
112.7191397099
 21
116.1493309642
 31
0.0
  0
LINE
  5
1AA
330
1F
100
AcDbEntity
  8
0
  6
Continuous
 62
     7
370
    25
100
AcDbLine
 10
112.7191397099
 20
115.7493316437
 30
0.0
 11
112.7191397099
 21
116.1493309642
 31
0.0
  0
LINE
  5
1AB
330
1F
100
AcDbEntity
  8
0
  6
Continuous
 62
     7
370
    25
100
AcDbLine
 10
113.819139704
 20
115.7493316437
 30
0.0
 11
112.7191397099
 21
115.7493316437
 31
0.0
  0
LINE
  5
1AC
330
1F
100
AcDbEntity
  8
0
  6
Continuous
 62
     7
370
    25
100
AcDbLine
 10
113.819139704
 20
116.1493309642
 30
0.0
 11
113.819139704
 21
115.7493316437
 31
0.0
  0
LINE
  5
1AD
330
1F
100
AcDbEntity
  8
0
  6
Continuous
 62
     7
370
    25
100
AcDbLine
 10
113.819139704
 20
116.1493309642
 30
0.0
 11
137.8191399126
 21
116.1493309642
 31
0.0
  0
LINE
  5
1AE
330
1F
100
AcDbEntity
  8
0
  6
Continuous
 62
     7
370
    25
100
AcDbLine
 10
137.8191399126
 20
123.1493339743
 30
0.0
 11
137.8191399126
 21
116.1493309642
 31
0.0
  0
LINE
  5
1AF
330
1F
100
AcDbEntity
  8
0
  6
Continuous
 62
     7
370
    25
100
AcDbLine
 10
137.8191399126
 20
123.1493339743
 30
0.0
 11
161.3191391079
 21
123.1493339743
 31
0.0
  0
LINE
  5
1B0
330
1F
100
AcDbEntity
  8
0
  6
Continuous
 62
     7
370
    25
100
AcDbLine
 10
161.3191391079
 20
123.1493339743
 30
0.0
 11
161.3191391079
 21
116.1493309642
 31
0.0
  0
LINE
  5
1B1
330
1F
100
AcDbEntity
  8
0
  6
Continuous
 62
     7
370
    25
100
AcDbLine
 10
163.3191392029
 20
116.1493309642
 30
0.0
 11
161.3191391079
 21
116.1493309642
 31
0.0
  0
LINE
  5
1B2
330
1F
100
AcDbEntity
  8
0
  6
Continuous
 62
     7
370
    25
100
AcDbLine
 10
164.319139134
 20
115.149332663
 30
0.0
 11
163.3191392029
 21
116.1493309642
 31
0.0
  0
LINE
  5
1B3
330
1F
100
AcDbEntity
  8
0
  6
Continuous
 62
     7
370
    25
100
AcDbLine
 10
164.319139134
 20
115.149332663
 30
0.0
 11
164.319139134
 21
101.1493340935
 31
0.0
  0
LINE
  5
1B4
330
1F
100
AcDbEntity
  8
0
  6
Continuous
 62
     7
370
    25
100
AcDbLine
 10
163.3191392029
 20
100.1493357922
 30
0.0
 11
164.319139134
 21
101.1493340935
 31
0.0
  0
LINE
  5
1B5
330
1F
100
AcDbEntity
  8
0
  6
Continuous
 62
     7
370
    25
100
AcDbLine
 10
161.3191391079
 20
100.1493357922
 30
0.0
 11
163.3191392029
 21
100.1493357922
 31
0.0
  0
LINE
  5
1B6
330
1F
100
AcDbEntity
  8
0
  6
Continuous
 62
     7
370
    25
100
AcDbLine
 10
161.3191391079
 20
100.1493357922
 30
0.0
 11
161.3191391079
 21
93.1493290569
 31
0.0
  0
LINE
  5
1B7
330
1F
100
AcDbEntity
  8
0
  6
Continuous
 62
     7
370
    25
100
AcDbLine
 10
161.3191391079
 20
93.1493290569
 30
0.0
 11
137.8191399126
 21
93.1493290569
 31
0.0
  0
LINE
  5
1B8
330
1F
100
AcDbEntity
  8
0
  6
Continuous
 62
     7
370
    25
100
AcDbLine
 10
137.8191399126
 20
100.1493357922
 30
0.0
 11
137.8191399126
 21
93.1493290569
 31
0.0
  0
LINE
  5
1B9
330
1F
100
AcDbEntity
  8
0
  6
Continuous
 62
     7
370
    25
100
AcDbLine
 10
137.8191399126
 20
100.1493357922
 30
0.0
 11
113.819139704
 21
100.1493357922
 31
0.0
  0
LINE
  5
1BA
330
1F
100
AcDbEntity
  8
0
  6
Continuous
 62
     7
370
    25
100
AcDbLine
 10
113.819139704
 20
100.5493351127
 30
0.0
 11
113.819139704
 21
100.1493357922
 31
0.0
  0
LINE
  5
1BB
330
1F
100
AcDbEntity
  8
0
  6
Continuous
 62
     7
370
    25
100
AcDbLine
 10
112.7191397099
 20
100.5493351127
 30
0.0
 11
113.819139704
 21
100.5493351127
 31
0.0
  0
LINE
  5
1BC
330
1F
100
AcDbEntity
  8
0
  6
Continuous
 62
     7
370
    25
100
AcDbLine
 10
112.7191397099
 20
100.1493357922
 30
0.0
 11
112.7191397099
 21
100.5493351127
 31
0.0
  0
LINE
  5
1BD
330
1F
100
AcDbEntity
  8
0
  6
Continuous
 62
     7
370
    25
100
AcDbLine
 10
112.7191397099
 20
100.1493357922
 30
0.0
 11
111.8191393761
 21
100.1493357922
 31
0.0
  0
LINE
  5
1BE
330
1F
100
AcDbEntity
  8
0
  6
Continuous
 62
     7
370
    25
100
AcDbLine
 10
111.6191397159
 20
100.3493317272
 30
0.0
 11
111.8191393761
 21
100.1493357922
 31
0.0
  0
LINE
  5
1BF
330
1F
100
AcDbEntity
  8
0
  6
Continuous
 62
     7
370
    25
100
AcDbLine
 10
111.6191397159
 20
115.949331304
 30
0.0
 11
111.6191397159
 21
100.3493317272
 31
0.0
  0
HATCH
  5
1C0
330
1F
100
AcDbEntity
  8
0
  6
Continuous
 62
     7
370
    18
100
AcDbHatch
 10
0.0
 20
0.0
 30
0.0
210
0.0
220
0.0
230
1.0
  2
ANSI31
 70
     0
 71
     0
 91
        1
 92
        0
 93
       24
 72
     1
 10
111.6191391079286
 20
115.9493327306911
 11
111.6191391079286
 21
100.3493327308677
 72
     1
 10
111.6191391079286
 20
100.3493327308677
 11
111.8191391079286
 21
100.1493327308677
 72
     1
 10
111.8191391079286
 20
100.1493327308677
 11
112.7191391079286
 21
100.1493327308758
 72
     1
 10
112.7191391079286
 20
100.1493327308758
 11
112.7191391079286
 21
100.5493327307794
 72
     1
 10
112.7191391079286
 20
100.5493327307794
 11
113.8191391079286
 21
100.5493327307794
 72
     1
 10
113.8191391079286
 20
100.5493327307794
 11
113.8191391079286
 21
100.1493327308758
 72
     1
 10
113.8191391079286
 20
100.1493327308758
 11
137.8191391079286
 21
100.1493327308677
 72
     1
 10
137.8191391079286
 20
100.1493327308677
 11
137.8191391079286
 21
93.14933273087021
 72
     1
 10
137.8191391079286
 20
93.14933273087021
 11
161.3191391079286
 21
93.14933273087021
 72
     1
 10
161.3191391079286
 20
93.14933273087021
 11
161.3191391079286
 21
100.1493327308702
 72
     1
 10
161.3191391079286
 20
100.1493327308702
 11
163.3191391079286
 21
100.1493327308702
 72
     1
 10
163.3191391079286
 20
100.1493327308702
 11
164.3191391079286
 21
101.1493327308702
 72
     1
 10
164.3191391079286
 20
101.1493327308702
 11
164.3191391079286
 21
115.1493327306916
 72
     1
 10
164.3191391079286
 20
115.1493327306916
 11
163.3191391079286
 21
116.1493327306915
 72
     1
 10
163.3191391079286
 20
116.1493327306915
 11
161.3191391079286
 21
116.1493327306915
 72
     1
 10
161.3191391079286
 20
116.1493327306915
 11
161.3191391079286
 21
123.1493327306915
 72
     1
 10
161.3191391079286
 20
123.1493327306915
 11
137.8191391079286
 21
123.1493327306915
 72
     1
 10
137.8191391079286
 20
123.1493327306915
 11
137.8191391079286
 21
116.1493327306911
 72
     1
 10
137.8191391079286
 20
116.1493327306911
 11
113.8191391079286
 21
116.149332730683
 72
     1
 10
113.8191391079286
 20
116.149332730683
 11
113.8191391079286
 21
115.7493327307794
 72
     1
 10
113.8191391079286
 20
115.7493327307794
 11
112.7191391079286
 21
115.7493327307794
 72
     1
 10
112.7191391079286
 20
115.7493327307794
 11
112.7191391079286
 21
116.149332730683
 72
     1
 10
112.7191391079286
 20
116.149332730683
 11
111.8191391079286
 21
116.1493327306911
 72
     1
 10
111.8191391079286
 20
116.1493327306911
 11
111.6191391079286
 21
115.9493327306911
 97
        0
 75
     0
 76
     1
 52
0.0
 41
1.0
 77
     0
 78
     1
 53
45.0
 43
0.0
 44
0.0
 45
-2.245064030267288
 46
2.245064030267288
 79
     0
 98
        1
 10
0.0
 20
0.0
  0
DIMENSION
  5
1C1
330
1F
100
AcDbEntity
  8
0
  6
Continuous
 62
     7
370
    18
100
AcDbDimension
  2
_D_6
 10
112.7191391079
 20
130.2387377857
 30
0.0
 11
145.767378399
 21
130.2387377857
 31
0.0
 70
   160
  1
<>\SH13^ ;
 71
     2
 42
-1.0
  3
SLDDIMSTYLE4
100
AcDbAlignedDimension
 13
113.8191391079
 23
108.1493327308
 33
0.0
 14
112.7191391079
 24
108.1493327308
 34
0.0
100
AcDbRotatedDimension
  0
DIMENSION
  5
1D6
330
1F
100
AcDbEntity
  8
0
  6
Continuous
 62
     7
370
    18
100
AcDbDimension
  2
_D_7
 10
111.6191391079
 20
139.1493327307
 30
0.0
 11
104.7655822527
 21
139.1493327307
 31
0.0
 70
   160
  1
<>
 71
     2
 42
-1.0
  3
SLDDIMSTYLE0
100
AcDbAlignedDimension
 13
112.7191391079
 23
108.1493327308
 33
0.0
 14
111.6191391079
 24
108.1493327308
 34
0.0
100
AcDbRotatedDimension
  0
DIMENSION
  5
1E2
330
1F
100
AcDbEntity
  8
0
  6
Continuous
 62
     7
370
    18
100
AcDbDimension
  2
_D_8
 10
82.5944269525
 20
115.7493327308
 30
0.0
 11
82.5944269525
 21
109.3921484419
 31
0.0
 70
   160
  1
%%c<>
 71
     2
 42
-1.0
  3
SLDDIMSTYLE0
100
AcDbAlignedDimension
 13
112.7191391079
 23
100.5493327308
 33
0.0
 14
112.7191391079
 24
115.7493327308
 34
0.0
 50
90.0
100
AcDbRotatedDimension
  0
DIMENSION
  5
1EF
330
1F
100
AcDbEntity
  8
0
  6
Continuous
 62
     7
370
    18
100
AcDbDimension
  2
_D_9
 10
111.6191391079
 20
90.0699256337
 30
0.0
 11
93.7682283229
 21
90.0699256337
 31
0.0
 70
   160
  1
<>
 71
     2
 42
-1.0
  3
SLDDIMSTYLE5
100
AcDbAlignedDimension
 13
111.8191391079
 23
116.1493327307
 33
0.0
 14
111.6191391079
 24
116.1493327307
 34
0.0
100
AcDbRotatedDimension
  0
DIMENSION
  5
1FC
330
1F
100
AcDbEntity
  8
0
  6
Continuous
 62
     7
370
    18
100
AcDbDimension
  2
_D_10
 10
111.8191391079
 20
116.1493327307
 30
0.0
 11
95.6191391079
 21
110.5254807654
 31
0.0
 70
   162
  1
<>
 71
     1
 42
-1.0
  3
SLDDIMSTYLE6
100
AcDb2LineAngularDimension
 13
118.8902069198
 23
123.2204005426
 33
0.0
 14
111.8191391079
 24
116.1493327307
 34
0.0
 15
121.8191391079
 25
116.1493327307
 35
0.0
 16
95.9760809522
 26
109.5869231731
 36
0.0
  0
DIMENSION
  5
209
330
1F
100
AcDbEntity
  8
0
  6
Continuous
 62
     7
370
    18
100
AcDbDimension
  2
_D_11
 10
163.3191391079
 20
86.5861100907
 30
0.0
 11
198.3191391079
 21
86.5861100907
 31
0.0
 70
   160
  1
<>
 71
     2
 42
-1.0
  3
SLDDIMSTYLE0
100
AcDbAlignedDimension
 13
164.3191391079
 23
101.1493327309
 33
0.0
 14
163.3191391079
 24
116.1493327307
 34
0.0
100
AcDbRotatedDimension
  0
DIMENSION
  5
215
330
1F
100
AcDbEntity
  8
0
  6
Continuous
 62
     7
370
    18
100
AcDbDimension
  2
_D_12
 10
164.3191391079
 20
115.1493327307
 30
0.0
 11
171.5228000002
 21
96.1487284416
 31
0.0
 70
   162
  1
<>
 71
     1
 42
-1.0
  3
SLDDIMSTYLE6
100
AcDb2LineAngularDimension
 13
164.3191391079
 23
115.1493327307
 33
0.0
 14
164.3191391079
 24
101.1493327309
 34
0.0
 15
163.3191391079
 25
116.1493327307
 35
0.0
 16
172.0953916308
 26
96.3757984256
 36
0.0
  0
MTEXT
  5
21F
330
1F
100
AcDbEntity
  8
0
  6
Continuous
 62
     7
370
     0
100
AcDbMText
 10
137.6446599303
 20
88.3853752896
 30
0.0
 40
3.5
 41
0.0
 71
     2
 72
     1
  1
COUPE A-A
  7
SLDTEXTSTYLE0
 73
     1
 44
1.0
  0
ENDSEC
  0
SECTION
  2
OBJECTS
  0
DICTIONARY
  5
C
330
0
100
AcDbDictionary
281
     1
  3
ACAD_GROUP
350
D
  3
ACAD_LAYOUT
350
1A
  3
ACAD_MLINESTYLE
350
17
  3
ACAD_PLOTSETTINGS
350
19
  3
ACAD_PLOTSTYLENAME
350
E
  3
ACAD_SCALELIST
350
47
  0
DICTIONARY
  5
D
102
{ACAD_REACTORS
330
C
102
}
330
C
100
AcDbDictionary
281
     1
  0
DICTIONARY
  5
1A
102
{ACAD_REACTORS
330
C
102
}
330
C
100
AcDbDictionary
281
     1
  3
Layout1
350
1E
  3
Layout2
350
26
  3
Model
350
22
  0
DICTIONARY
  5
17
102
{ACAD_REACTORS
330
C
102
}
330
C
100
AcDbDictionary
281
     1
  3
Standard
350
18
  0
DICTIONARY
  5
19
102
{ACAD_REACTORS
330
C
102
}
330
C
100
AcDbDictionary
281
     1
  0
ACDBDICTIONARYWDFLT
  5
E
102
{ACAD_REACTORS
330
C
102
}
330
C
100
AcDbDictionary
281
     1
  3
Normal
350
F
100
AcDbDictionaryWithDefault
340
F
  0
DICTIONARY
  5
47
102
{ACAD_REACTORS
330
C
102
}
330
C
100
AcDbDictionary
281
     1
  3
A0
350
48
  3
A1
350
49
  3
A2
350
4A
  3
A3
350
4B
  3
A4
350
4C
  3
A5
350
4D
  3
A6
350
4E
  3
A7
350
4F
  3
A8
350
50
  3
A9
350
51
  3
B0
350
52
  3
B1
350
53
  3
B2
350
54
  3
B3
350
55
  3
B4
350
56
  3
B5
350
57
  3
B6
350
58
  3
B7
350
59
  3
B8
350
5A
  3
B9
350
5B
  3
C0
350
5C
  3
C1
350
5D
  3
C2
350
5E
  3
C3
350
5F
  3
C4
350
60
  3
C5
350
61
  3
C6
350
62
  3
C7
350
63
  3
C8
350
64
  3
C9
350
65
  3
D0
350
66
  3
D1
350
67
  3
D2
350
68
  0
LAYOUT
  5
1E
102
{ACAD_REACTORS
330
1A
102
}
330
1A
100
AcDbPlotSettings
  1

  2
none_device
  4

  6

 40
0.0
 41
0.0
 42
0.0
 43
0.0
 44
0.0
 45
0.0
 46
0.0
 47
0.0
 48
0.0
 49
0.0
140
0.0
141
0.0
142
1.0
143
1.0
 70
   688
 72
     1
 73
     0
 74
     5
  7

 75
    16
147
1.0
148
0.0
149
0.0
100
AcDbLayout
  1
Layout1
 70
     1
 71
     1
 10
0.0
 20
0.0
 11
420.0
 21
297.0
 12
0.0
 22
0.0
 32
0.0
 14
1.0000000000E+20
 24
1.0000000000E+20
 34
1.0000000000E+20
 15
-1.0000000000E+20
 25
-1.0000000000E+20
 35
-1.0000000000E+20
146
0.0
 13
0.0
 23
0.0
 33
0.0
 16
1.0
 26
0.0
 36
0.0
 17
0.0
 27
1.0
 37
0.0
 76
     0
330
1B
  0
LAYOUT
  5
26
102
{ACAD_REACTORS
330
1A
102
}
330
1A
100
AcDbPlotSettings
  1

  2
none_device
  4

  6

 40
0.0
 41
0.0
 42
0.0
 43
0.0
 44
0.0
 45
0.0
 46
0.0
 47
0.0
 48
0.0
 49
0.0
140
0.0
141
0.0
142
1.0
143
1.0
 70
   688
 72
     1
 73
     0
 74
     5
  7

 75
    16
147
1.0
148
0.0
149
0.0
100
AcDbLayout
  1
Layout2
 70
     1
 71
     2
 10
0.0
 20
0.0
 11
0.0
 21
0.0
 12
0.0
 22
0.0
 32
0.0
 14
0.0
 24
0.0
 34
0.0
 15
0.0
 25
0.0
 35
0.0
146
0.0
 13
0.0
 23
0.0
 33
0.0
 16
1.0
 26
0.0
 36
0.0
 17
0.0
 27
1.0
 37
0.0
 76
     0
330
23
  0
LAYOUT
  5
22
102
{ACAD_REACTORS
330
1A
102
}
330
1A
100
AcDbPlotSettings
  1

  2
none_device
  4
Letter_(8.50_x_11.00_Inches)
  6

 40
6.35
 41
6.35
 42
6.35000508
 43
6.35000508
 44
215.9
 45
279.4
 46
0.0
 47
0.0
 48
0.0
 49
0.0
140
0.0
141
0.0
142
1.0
143
1.0
 70
  1712
 72
     1
 73
     0
 74
     0
  7

 75
     0
147
1.0
148
0.0
149
0.0
100
AcDbLayout
  1
Model
 70
     1
 71
     0
 10
0.0
 20
0.0
 11
420.0
 21
297.0
 12
0.0
 22
0.0
 32
0.0
 14
0.0
 24
0.0
 34
0.0
 15
420.0
 25
297.0
 35
0.0
146
0.0
 13
0.0
 23
0.0
 33
0.0
 16
1.0
 26
0.0
 36
0.0
 17
0.0
 27
1.0
 37
0.0
 76
     0
330
1F
331
29
  0
MLINESTYLE
  5
18
102
{ACAD_REACTORS
330
17
102
}
330
17
100
AcDbMlineStyle
  2
Standard
 70
     0
  3

 62
   256
 51
90.0
 52
90.0
 71
     2
 49
0.5
 62
   256
  6
BYLAYER
 49
-0.5
 62
   256
  6
BYLAYER
  0
ACDBPLACEHOLDER
  5
F
102
{ACAD_REACTORS
330
E
102
}
330
E
  0
SCALE
  5
48
102
{ACAD_REACTORS
330
47
102
}
330
47
100
AcDbScale
 70
     0
300
1:1
140
1.0
141
1.0
290
     1
  0
SCALE
  5
49
102
{ACAD_REACTORS
330
47
102
}
330
47
100
AcDbScale
 70
     0
300
1:2
140
1.0
141
2.0
290
     0
  0
SCALE
  5
4A
102
{ACAD_REACTORS
330
47
102
}
330
47
100
AcDbScale
 70
     0
300
1:4
140
1.0
141
4.0
290
     0
  0
SCALE
  5
4B
102
{ACAD_REACTORS
330
47
102
}
330
47
100
AcDbScale
 70
     0
300
1:5
140
1.0
141
5.0
290
     0
  0
SCALE
  5
4C
102
{ACAD_REACTORS
330
47
102
}
330
47
100
AcDbScale
 70
     0
300
1:8
140
1.0
141
8.0
290
     0
  0
SCALE
  5
4D
102
{ACAD_REACTORS
330
47
102
}
330
47
100
AcDbScale
 70
     0
300
1:10
140
1.0
141
10.0
290
     0
  0
SCALE
  5
4E
102
{ACAD_REACTORS
330
47
102
}
330
47
100
AcDbScale
 70
     0
300
1:16
140
1.0
141
16.0
290
     0
  0
SCALE
  5
4F
102
{ACAD_REACTORS
330
47
102
}
330
47
100
AcDbScale
 70
     0
300
1:20
140
1.0
141
20.0
290
     0
  0
SCALE
  5
50
102
{ACAD_REACTORS
330
47
102
}
330
47
100
AcDbScale
 70
     0
300
1:30
140
1.0
141
30.0
290
     0
  0
SCALE
  5
51
102
{ACAD_REACTORS
330
47
102
}
330
47
100
AcDbScale
 70
     0
300
1:40
140
1.0
141
40.0
290
     0
  0
SCALE
  5
52
102
{ACAD_REACTORS
330
47
102
}
330
47
100
AcDbScale
 70
     0
300
1:50
140
1.0
141
50.0
290
     0
  0
SCALE
  5
53
102
{ACAD_REACTORS
330
47
102
}
330
47
100
AcDbScale
 70
     0
300
1:100
140
1.0
141
100.0
290
     0
  0
SCALE
  5
54
102
{ACAD_REACTORS
330
47
102
}
330
47
100
AcDbScale
 70
     0
300
2:1
140
2.0
141
1.0
290
     0
  0
SCALE
  5
55
102
{ACAD_REACTORS
330
47
102
}
330
47
100
AcDbScale
 70
     0
300
4:1
140
4.0
141
1.0
290
     0
  0
SCALE
  5
56
102
{ACAD_REACTORS
330
47
102
}
330
47
100
AcDbScale
 70
     0
300
8:1
140
8.0
141
1.0
290
     0
  0
SCALE
  5
57
102
{ACAD_REACTORS
330
47
102
}
330
47
100
AcDbScale
 70
     0
300
10:1
140
10.0
141
1.0
290
     0
  0
SCALE
  5
58
102
{ACAD_REACTORS
330
47
102
}
330
47
100
AcDbScale
 70
     0
300
100:1
140
100.0
141
1.0
290
     0
  0
SCALE
  5
59
102
{ACAD_REACTORS
330
47
102
}
330
47
100
AcDbScale
 70
     0
300
1/128" = 1'-0"
140
0.0078125
141
12.0
290
     0
  0
SCALE
  5
5A
102
{ACAD_REACTORS
330
47
102
}
330
47
100
AcDbScale
 70
     0
300
1/64" = 1'-0"
140
0.015625
141
12.0
290
     0
  0
SCALE
  5
5B
102
{ACAD_REACTORS
330
47
102
}
330
47
100
AcDbScale
 70
     0
300
1/32" = 1'-0"
140
0.03125
141
12.0
290
     0
  0
SCALE
  5
5C
102
{ACAD_REACTORS
330
47
102
}
330
47
100
AcDbScale
 70
     0
300
1/16" = 1'-0"
140
0.0625
141
12.0
290
     0
  0
SCALE
  5
5D
102
{ACAD_REACTORS
330
47
102
}
330
47
100
AcDbScale
 70
     0
300
3/32" = 1'-0"
140
0.09375
141
12.0
290
     0
  0
SCALE
  5
5E
102
{ACAD_REACTORS
330
47
102
}
330
47
100
AcDbScale
 70
     0
300
1/8" = 1'-0"
140
0.125
141
12.0
290
     0
  0
SCALE
  5
5F
102
{ACAD_REACTORS
330
47
102
}
330
47
100
AcDbScale
 70
     0
300
3/16" = 1'-0"
140
0.1875
141
12.0
290
     0
  0
SCALE
  5
60
102
{ACAD_REACTORS
330
47
102
}
330
47
100
AcDbScale
 70
     0
300
1/4" = 1'-0"
140
0.25
141
12.0
290
     0
  0
SCALE
  5
61
102
{ACAD_REACTORS
330
47
102
}
330
47
100
AcDbScale
 70
     0
300
3/8" = 1'-0"
140
0.375
141
12.0
290
     0
  0
SCALE
  5
62
102
{ACAD_REACTORS
330
47
102
}
330
47
100
AcDbScale
 70
     0
300
1/2" = 1'-0"
140
0.5
141
12.0
290
     0
  0
SCALE
  5
63
102
{ACAD_REACTORS
330
47
102
}
330
47
100
AcDbScale
 70
     0
300
3/4" = 1'-0"
140
0.75
141
12.0
290
     0
  0
SCALE
  5
64
102
{ACAD_REACTORS
330
47
102
}
330
47
100
AcDbScale
 70
     0
300
1" = 1'-0"
140
1.0
141
12.0
290
     0
  0
SCALE
  5
65
102
{ACAD_REACTORS
330
47
102
}
330
47
100
AcDbScale
 70
     0
300
1-1/2" = 1'-0"
140
1.5
141
12.0
290
     0
  0
SCALE
  5
66
102
{ACAD_REACTORS
330
47
102
}
330
47
100
AcDbScale
 70
     0
300
3" = 1'-0"
140
3.0
141
12.0
290
     0
  0
SCALE
  5
67
102
{ACAD_REACTORS
330
47
102
}
330
47
100
AcDbScale
 70
     0
300
6" = 1'-0"
140
6.0
141
12.0
290
     0
  0
SCALE
  5
68
102
{ACAD_REACTORS
330
47
102
}
330
47
100
AcDbScale
 70
     0
300
1'-0" = 1'-0"
140
12.0
141
12.0
290
     0
  0
ENDSEC
  0
EOF
